<?xml version="1.0" standalone="no"?>
<!DOCTYPE svg PUBLIC "-//W3C//DTD SVG 1.1//EN" "http://www.w3.org/Graphics/SVG/1.1/DTD/svg11.dtd" >
<svg xmlns="http://www.w3.org/2000/svg" xmlns:xlink="http://www.w3.org/1999/xlink" version="1.1">
<metadata></metadata>
<defs>
<font id="ubuntulight" horiz-adv-x="376" >
<font-face units-per-em="1000" ascent="800" descent="-200" />
<missing-glyph horiz-adv-x="228" />
<glyph unicode="ff" horiz-adv-x="752" d="M276 776q42 0 68.5 -6.5t34.5 -11.5l-13 -56q-11 5 -32.5 10.5t-54.5 5.5q-69 0 -98.5 -35t-29.5 -112v-54h208v-55h-208v-462h-65v573q0 101 46.5 152t143.5 51zM652 776q42 0 68.5 -6.5t34.5 -11.5l-13 -56q-11 5 -32.5 10.5t-54.5 5.5q-69 0 -98.5 -35t-29.5 -112v-54 h208v-55h-208v-462h-65v573q0 101 46.5 152t143.5 51z" />
<glyph unicode="fi" horiz-adv-x="613" d="M276 776q42 0 68.5 -6.5t34.5 -11.5l-13 -56q-11 5 -32.5 10.5t-54.5 5.5q-69 0 -98.5 -35t-29.5 -112v-54h208v-55h-208v-462h-65v573q0 101 46.5 152t143.5 51zM527 0h-65v517h65v-517zM542 673q0 -23 -14 -36.5t-34 -13.5t-34 13.5t-14 36.5t14 36.5t34 13.5t34 -13.5 t14 -36.5z" />
<glyph unicode="fl" horiz-adv-x="631" d="M276 776q42 0 68.5 -6.5t34.5 -11.5l-13 -56q-11 5 -32.5 10.5t-54.5 5.5q-69 0 -98.5 -35t-29.5 -112v-54h208v-55h-208v-462h-65v573q0 101 46.5 152t143.5 51zM593 -9q-33 1 -57.5 8.5t-41 23t-25 40t-8.5 61.5v640l65 12v-650q0 -24 4.5 -38.5t13.5 -23t23.5 -12.5 t34.5 -7z" />
<glyph unicode="ffi" horiz-adv-x="989" d="M276 776q42 0 68.5 -6.5t34.5 -11.5l-13 -56q-11 5 -32.5 10.5t-54.5 5.5q-69 0 -98.5 -35t-29.5 -112v-54h208v-55h-208v-462h-65v573q0 101 46.5 152t143.5 51zM652 776q42 0 68.5 -6.5t34.5 -11.5l-13 -56q-11 5 -32.5 10.5t-54.5 5.5q-69 0 -98.5 -35t-29.5 -112v-54 h208v-55h-208v-462h-65v573q0 101 46.5 152t143.5 51zM903 0h-65v517h65v-517zM918 673q0 -23 -14 -36.5t-34 -13.5t-34 13.5t-14 36.5t14 36.5t34 13.5t34 -13.5t14 -36.5z" />
<glyph unicode="ffl" horiz-adv-x="1007" d="M276 776q42 0 68.5 -6.5t34.5 -11.5l-13 -56q-11 5 -32.5 10.5t-54.5 5.5q-69 0 -98.5 -35t-29.5 -112v-54h208v-55h-208v-462h-65v573q0 101 46.5 152t143.5 51zM652 776q42 0 68.5 -6.5t34.5 -11.5l-13 -56q-11 5 -32.5 10.5t-54.5 5.5q-69 0 -98.5 -35t-29.5 -112v-54 h208v-55h-208v-462h-65v573q0 101 46.5 152t143.5 51zM969 -9q-33 1 -57.5 8.5t-41 23t-25 40t-8.5 61.5v640l65 12v-650q0 -24 4.5 -38.5t13.5 -23t23.5 -12.5t34.5 -7z" />
<glyph unicode=" "  horiz-adv-x="228" />
<glyph unicode="&#x09;" horiz-adv-x="228" />
<glyph unicode="&#xa0;" horiz-adv-x="228" />
<glyph unicode="!" horiz-adv-x="274" d="M172 500q0 -43 -1.5 -80.5t-4.5 -72.5t-6.5 -68t-7.5 -66h-30q-9 67 -14.5 134t-5.5 153v193h70v-193zM192 43q0 -23 -14.5 -39t-40.5 -16t-40.5 16t-14.5 39t14.5 39t40.5 16t40.5 -16t14.5 -39z" />
<glyph unicode="&#x22;" horiz-adv-x="392" d="M308 760v-38q0 -50 -5.5 -101.5t-14.5 -102.5h-33q-8 51 -13.5 102.5t-5.5 102.5v37h72zM156 760v-38q0 -50 -5.5 -101.5t-14.5 -102.5h-33q-8 51 -13.5 102.5t-5.5 102.5v37h72z" />
<glyph unicode="#" horiz-adv-x="653" d="M264 503h185l36 190h61l-36 -190h96v-53h-107l-39 -207h146v-54h-156l-37 -189h-61l37 189h-185l-37 -189h-61l37 189h-96v54h106l39 207h-145v53h156l36 190h61zM214 243h185l40 207h-185z" />
<glyph unicode="$" horiz-adv-x="564" d="M314 -109h-59v129q-68 1 -113 14.5t-67 26.5l19 56q13 -7 29 -14t37 -13t48.5 -9.5t64.5 -3.5q39 0 66.5 8t45 21.5t25 32.5t7.5 40q0 33 -12.5 55t-35 38.5t-54.5 29t-70 26.5q-27 10 -55 22.5t-50.5 31t-36.5 45t-14 63.5q0 74 40.5 114.5t125.5 52.5v119h59v-116 q47 -1 82.5 -9.5t59.5 -18.5l-17 -55q-17 7 -50 16.5t-89 9.5q-142 0 -142 -103q0 -28 10 -46.5t29 -32.5t46 -25t60 -23q36 -14 69.5 -28.5t59 -35.5t40.5 -51t15 -73q0 -70 -46 -113t-127 -49v-132z" />
<glyph unicode="%" horiz-adv-x="831" d="M359 529q0 -44 -12 -77.5t-33 -56t-48 -34t-57 -11.5t-57 11.5t-48 34t-33 56t-12 77.5t12 77.5t33 56t48 34t57 11.5t57 -11.5t48 -34t33 -56t12 -77.5zM300 529q0 57 -23 91.5t-68 34.5t-68 -34.5t-23 -91.5t23 -91.5t68 -34.5t68 34.5t23 91.5zM472 164q0 44 12 77.5 t33 56t48 34t57 11.5t57 -11.5t48 -34t33 -56t12 -77.5t-12 -77.5t-33 -56t-48 -34t-57 -11.5t-57 11.5t-48 34t-33 56t-12 77.5zM531 164q0 -57 23 -91.5t68 -34.5t68 34.5t23 91.5t-23 91.5t-68 34.5t-68 -34.5t-23 -91.5zM580 693h66l-395 -693h-66z" />
<glyph unicode="&#x26;" horiz-adv-x="648" d="M486 178q21 35 34 76.5t18 83.5l56 -7q-5 -49 -22 -99t-47 -95q37 -38 66.5 -72t46.5 -65h-73q-14 23 -33.5 45.5t-42.5 45.5q-42 -45 -97.5 -72.5t-124.5 -27.5q-61 0 -102.5 17.5t-67 45t-36.5 60.5t-11 65q0 40 12.5 71.5t33.5 56t49 43.5t58 33q-44 41 -61.5 80 t-17.5 79q0 39 12.5 70t35 52.5t53.5 32.5t67 11q37 0 67 -11.5t50 -31t31 -46.5t11 -58q0 -37 -13 -66.5t-34 -52.5t-48.5 -41t-55.5 -33zM267 48q58 0 103.5 22t79.5 60l-210 215q-20 -10 -41.5 -23t-39 -32.5t-28.5 -46.5t-11 -64q0 -23 8 -46.5t25 -42t45 -30.5t69 -12z M389 560q0 39 -26.5 65.5t-68.5 26.5q-51 0 -77.5 -27.5t-26.5 -75.5q0 -35 15.5 -69.5t59.5 -74.5q54 26 89 61t35 94z" />
<glyph unicode="'" horiz-adv-x="240" d="M156 760v-38q0 -50 -5.5 -101.5t-14.5 -102.5h-33q-8 51 -13.5 102.5t-5.5 102.5v37h72z" />
<glyph unicode="(" horiz-adv-x="310" d="M83 299q0 145 47.5 267t123.5 217l47 -32q-79 -98 -115.5 -207.5t-36.5 -244.5t36.5 -244.5t115.5 -207.5l-47 -32q-76 95 -123.5 217t-47.5 267z" />
<glyph unicode=")" horiz-adv-x="310" d="M227 299q0 -145 -47.5 -267t-123.5 -217l-47 32q79 98 115.5 207.5t36.5 244.5t-36.5 244.5t-115.5 207.5l47 32q76 -95 123.5 -217t47.5 -267z" />
<glyph unicode="*" horiz-adv-x="472" d="M260 488q34 -34 61.5 -62t57.5 -68l-56 -41q-14 20 -25.5 38.5t-21.5 37t-19.5 38t-20.5 40.5q-11 -21 -20.5 -40.5t-19.5 -38t-21.5 -37t-25.5 -38.5l-56 41q15 20 29 36.5t28 31.5t29.5 30t32.5 32q-47 7 -86.5 14t-86.5 22l21 65q24 -8 44 -16t39 -17t38 -18.5 t40 -19.5l-7.5 45t-6 41.5t-4 42t-1.5 46.5h68q0 -25 -1.5 -46.5t-4 -42t-6 -41.5l-7.5 -45q21 10 40 19.5t38 18.5t39 17t44 16l21 -65q-47 -15 -86.5 -22t-86.5 -14z" />
<glyph unicode="+" horiz-adv-x="564" d="M56 317h197v217h58v-217h197v-56h-197v-218h-58v218h-197v56z" />
<glyph unicode="," horiz-adv-x="246" d="M162 95q1 -9 1 -16v-12q0 -62 -17.5 -119t-48.5 -107l-48 22q23 44 32.5 92.5t9.5 100.5q0 12 -0.5 20t-1.5 19h73z" />
<glyph unicode="-" horiz-adv-x="282" d="M28 321h226v-63h-226v63z" />
<glyph unicode="." horiz-adv-x="246" d="M178 43q0 -23 -14.5 -39t-40.5 -16t-40.5 16t-14.5 39t14.5 39t40.5 16t40.5 -16t14.5 -39z" />
<glyph unicode="/" horiz-adv-x="359" d="M43 -185h-66l341 968h64z" />
<glyph unicode="0" horiz-adv-x="564" d="M59 346q0 176 58 269t165 93q106 0 164.5 -93t58.5 -269q0 -175 -58.5 -268t-164.5 -93t-164.5 93t-58.5 268zM434 346q0 60 -7.5 114.5t-25.5 96.5t-47 67t-72 25q-44 0 -73 -25t-46.5 -67t-25 -96.5t-7.5 -114.5t7.5 -114.5t25 -96t46.5 -66.5t73 -25q43 0 72 25 t47 66.5t25.5 96t7.5 114.5z" />
<glyph unicode="1" horiz-adv-x="564" d="M107 551q60 21 107 53.5t93 88.5h46v-693h-65v594q-11 -12 -28.5 -25t-39.5 -25.5t-46 -24t-48 -18.5z" />
<glyph unicode="2" horiz-adv-x="564" d="M456 521q0 -39 -14 -73.5t-37.5 -66.5t-53.5 -62t-61 -60q-26 -25 -50.5 -50.5t-44 -51t-31 -50t-11.5 -48.5v-2h327v-57h-399q0 2 -0.5 7.5t-0.5 16.5q0 47 17 87.5t43.5 76.5t59 67t62.5 60q25 24 47.5 46.5t39.5 46.5t27 51t10 59q0 70 -37.5 100.5t-94.5 30.5 q-32 0 -57 -8t-43.5 -18.5t-31.5 -21.5t-19 -17l-34 45q6 7 21.5 20.5t39 26.5t54.5 22.5t69 9.5q101 0 152 -49.5t51 -137.5z" />
<glyph unicode="3" horiz-adv-x="564" d="M235 45q95 0 136 39.5t41 106.5q0 44 -16.5 73t-45 46.5t-66 25t-79.5 7.5h-10v54h23q27 0 55.5 5.5t52 20.5t39 40t15.5 64q0 33 -11 56.5t-29.5 37.5t-43 20.5t-51.5 6.5q-54 0 -84 -15t-49 -28l-28 51q10 7 25.5 16t36.5 17t46.5 13.5t55.5 5.5q52 0 89.5 -13 t62.5 -36.5t37 -56t12 -70.5q0 -61 -32.5 -99.5t-83.5 -55.5q28 -7 54.5 -21.5t47.5 -37t34 -54.5t13 -75q0 -44 -15.5 -81t-46 -64.5t-77.5 -43t-110 -15.5q-33 0 -60.5 4.5t-48.5 10.5t-35.5 12t-21.5 10l17 58q6 -4 20 -10t33.5 -11.5t44 -9.5t53.5 -4z" />
<glyph unicode="4" horiz-adv-x="564" d="M50 228q18 48 50.5 108t73.5 123t89 123.5t97 110.5h68v-452h86v-53h-86v-188h-64v188h-314v40zM364 241v379q-35 -36 -71 -83t-68.5 -97.5t-60.5 -101.5t-47 -97h247z" />
<glyph unicode="5" horiz-adv-x="564" d="M239 45q50 0 83.5 11.5t53.5 31.5t28.5 46.5t8.5 57.5q0 40 -13 72t-46 54t-89 33.5t-142 11.5q6 51 10 93.5t7 82t4.5 77t2.5 77.5h312v-57h-255q-1 -19 -3 -49t-4 -61.5t-5 -60.5t-5 -46q77 -2 133 -19t92 -46t53.5 -70t17.5 -91q0 -44 -14.5 -82t-44.5 -66t-76 -44 t-109 -16q-32 0 -59.5 4.5t-49 10.5t-36.5 12t-22 10l17 58q6 -4 20.5 -10t34 -11.5t44 -9.5t51.5 -4z" />
<glyph unicode="6" horiz-adv-x="564" d="M77 275q0 203 97.5 308t283.5 113l4 -55q-61 -4 -112.5 -18.5t-91.5 -45t-67 -78.5t-37 -118q27 14 65 24.5t81 10.5q56 0 95 -17.5t63 -46.5t35 -67t11 -80q0 -39 -12 -78t-37.5 -70.5t-64 -51.5t-91.5 -20q-109 0 -165.5 76.5t-56.5 213.5zM294 359q-46 0 -80.5 -10.5 t-64.5 -24.5q-2 -17 -2 -26.5v-23.5q0 -47 6.5 -89t24 -74t46.5 -50.5t74 -18.5q37 0 63 13.5t42 35.5t23.5 51t7.5 61q0 80 -35.5 118t-104.5 38z" />
<glyph unicode="7" horiz-adv-x="564" d="M175 0q6 83 30.5 176t60 180t77 160t80.5 117h-354v60h421v-58q-34 -41 -74.5 -109.5t-76.5 -154t-62.5 -181.5t-32.5 -190h-69z" />
<glyph unicode="8" horiz-adv-x="564" d="M282 -15q-49 0 -88.5 14t-68 39.5t-44 60t-15.5 75.5q0 35 10 63.5t26.5 51t38 40t45.5 30.5q-61 30 -83 71t-22 89q0 43 15 78t41.5 59.5t63.5 38t81 13.5q52 0 90 -15.5t62.5 -40.5t36 -57t11.5 -66q0 -33 -10 -60.5t-26 -50t-36 -39.5t-39 -29q70 -30 98.5 -75 t28.5 -95q0 -43 -15.5 -79t-43.5 -61.5t-68 -40t-89 -14.5zM429 174q0 43 -16.5 70t-43 44t-60 27t-67.5 21q-51 -24 -79 -64.5t-28 -97.5q0 -28 9 -52t27.5 -42t46 -28.5t64.5 -10.5t64.5 10.5t46 28.5t27.5 42t9 52zM149 526q0 -28 6.5 -51t24.5 -41.5t50 -34t84 -29.5 q46 26 73 64t27 95q0 23 -7.5 45t-23 39.5t-40.5 28t-61 10.5q-33 0 -58 -10t-41.5 -27.5t-25 -40.5t-8.5 -48z" />
<glyph unicode="9" horiz-adv-x="564" d="M490 418q0 -209 -100 -314.5t-292 -105.5l-2 54q66 0 121 15t95.5 46.5t66 81t34.5 119.5q-27 -14 -65 -24.5t-81 -10.5q-56 0 -95 17.5t-63 46.5t-35 67t-11 79q0 38 12 77t37.5 70.5t64 51.5t91.5 20q109 0 165.5 -76.5t56.5 -213.5zM273 336q46 0 80.5 10.5t64.5 24.5 q1 12 1.5 23t0.5 25q0 47 -6.5 89t-24 74t-46.5 50.5t-74 18.5q-37 0 -63 -13.5t-42 -35.5t-23.5 -51t-7.5 -60q0 -79 35.5 -117t104.5 -38z" />
<glyph unicode=":" horiz-adv-x="246" d="M178 43q0 -23 -14.5 -39t-40.5 -16t-40.5 16t-14.5 39t14.5 39t40.5 16t40.5 -16t14.5 -39zM178 462q0 -23 -14.5 -39t-40.5 -16t-40.5 16t-14.5 39t14.5 39t40.5 16t40.5 -16t14.5 -39z" />
<glyph unicode=";" horiz-adv-x="246" d="M162 95q1 -9 1 -16v-12q0 -62 -17.5 -119t-48.5 -107l-48 22q23 44 32.5 92.5t9.5 100.5q0 12 -0.5 20t-1.5 19h73zM178 462q0 -23 -14.5 -39t-40.5 -16t-40.5 16t-14.5 39t14.5 39t40.5 16t40.5 -16t14.5 -39z" />
<glyph unicode="&#x3c;" horiz-adv-x="564" d="M131 288l377 -158l-20 -55l-433 184v58l433 184l20 -55z" />
<glyph unicode="=" horiz-adv-x="564" d="M56 212h452v-56h-452v56zM56 422h452v-56h-452v56z" />
<glyph unicode="&#x3e;" horiz-adv-x="564" d="M55 446l20 55l433 -184v-58l-433 -184l-20 55l377 158z" />
<glyph unicode="?" horiz-adv-x="380" d="M161 650q-67 0 -122 -30l-19 54q21 12 60.5 23t87.5 11q53 0 88.5 -13.5t56.5 -35t30 -48.5t9 -53q0 -36 -13 -64t-33 -52t-42.5 -46t-42.5 -45.5t-33 -50.5t-13 -60v-16.5t1 -10.5h-52q-2 10 -3 21.5t-1 23.5q0 34 12 60.5t30 49.5t39 43.5t39 42t30 46t12 55.5 q0 28 -10 46.5t-26.5 29.5t-38.5 15t-46 4zM210 43q0 -23 -14.5 -39t-40.5 -16t-40.5 16t-14.5 39t14.5 39t40.5 16t40.5 -16t14.5 -39z" />
<glyph unicode="@" horiz-adv-x="940" d="M687 58q-32 0 -51.5 11t-28.5 24q-18 -12 -49 -24t-68 -12q-46 0 -84.5 13.5t-67 41t-44.5 69.5t-16 99q0 47 14.5 88t42 71.5t68 48t92.5 17.5q48 0 86.5 -8.5t60.5 -17.5v-293q0 -39 13.5 -56t35.5 -17q34 0 55.5 21.5t34 54t17.5 69t5 66.5q0 65 -22 124t-63.5 103.5 t-101.5 71t-136 26.5q-77 0 -140 -24.5t-108 -71.5t-70 -115.5t-25 -156.5q0 -93 27.5 -163t75.5 -117t113.5 -70.5t141.5 -23.5q58 0 91.5 5.5t44.5 9.5l7 -55q-17 -5 -57 -11t-86 -6q-87 0 -164 25.5t-134.5 79t-91 134.5t-33.5 192q0 107 32 187t87.5 133t130 79 t158.5 26q80 0 150.5 -27t123.5 -77t83.5 -121t30.5 -159q0 -65 -14 -114.5t-38.5 -82.5t-57.5 -50t-71 -17zM486 111q34 0 55 5.5t44 19.5q-4 10 -5.5 25.5t-1.5 26.5v254q-8 2 -26 5.5t-50 3.5q-38 0 -67.5 -12.5t-49.5 -35t-30 -54t-10 -68.5q0 -44 11 -76t30 -53t45 -31 t55 -10z" />
<glyph unicode="A" horiz-adv-x="641" d="M556 0q-19 51 -36 98t-33 92h-337q-17 -45 -34 -92t-35 -98h-71q40 108 75 201.5t68.5 177t66.5 160.5t70 154h60q37 -77 70 -154t66.5 -160.5t68.5 -177t76 -201.5h-75zM318 615q-38 -86 -73.5 -175t-73.5 -192h295q-38 103 -74 192t-74 175z" />
<glyph unicode="B" horiz-adv-x="630" d="M256 -6q-17 0 -39.5 1.5t-46 4t-44.5 6t-36 7.5v667q18 5 40 8.5t45.5 6t46 3.5t41.5 1q56 0 106.5 -9t88.5 -30t60.5 -55.5t22.5 -85.5q0 -56 -28.5 -95.5t-76.5 -54.5q30 -7 55 -20t44 -33.5t29.5 -50t10.5 -70.5q0 -98 -78 -149.5t-241 -51.5zM158 332v-273 q15 -2 45 -4.5t61 -2.5q46 0 89.5 6t76.5 22t53 44t20 72q0 40 -14 66.5t-40 42t-63.5 21.5t-83.5 6h-144zM158 390h132q37 0 70 5.5t57.5 20t38.5 39t14 62.5q0 34 -15 57.5t-42.5 38.5t-65.5 21.5t-84 6.5q-37 0 -62.5 -2t-42.5 -5v-244z" />
<glyph unicode="C" horiz-adv-x="609" d="M378 -15q-67 0 -124.5 24t-100 70t-67 113.5t-24.5 154.5t26.5 154.5t70.5 113.5t102 69.5t121 23.5q39 0 71 -5t56 -12.5t41 -15t26 -13.5l-22 -59q-25 15 -63.5 29.5t-95.5 14.5q-65 0 -113.5 -22t-81.5 -62t-49.5 -95t-16.5 -122q0 -69 16.5 -124.5t48.5 -94.5 t78.5 -60t106.5 -21q66 0 110.5 12.5t67.5 25.5l19 -58q-7 -5 -24 -11.5t-43 -13.5t-60 -11.5t-76 -4.5z" />
<glyph unicode="D" horiz-adv-x="702" d="M640 347q0 -89 -28 -155t-78.5 -110t-120.5 -66t-154 -22q-42 0 -88 4.5t-81 13.5v668q35 10 81 14.5t88 4.5q84 0 154 -22t120.5 -66t78.5 -110t28 -154zM158 60q6 -1 30.5 -4t78.5 -3q75 0 131 20.5t94 58.5t57 92.5t19 122.5t-19 122t-57 92t-94 58.5t-131 20.5 q-54 0 -78.5 -3t-30.5 -4v-573z" />
<glyph unicode="E" horiz-adv-x="555" d="M90 0v693h400v-59h-332v-241h296v-58h-296v-276h358v-59h-426z" />
<glyph unicode="F" horiz-adv-x="520" d="M90 0v693h395v-59h-327v-244h290v-59h-290v-331h-68z" />
<glyph unicode="G" horiz-adv-x="658" d="M522 328h68v-309q-19 -8 -74.5 -20.5t-136.5 -12.5q-68 0 -126 24t-100.5 69.5t-66.5 113t-24 154.5t26 154.5t70.5 113t103.5 69.5t126 24q77 0 127 -16.5t73 -31.5l-23 -58q-28 20 -76 32.5t-104 12.5q-52 0 -98 -19t-80 -57t-53.5 -94t-19.5 -130q0 -69 16 -124.5 t48.5 -95t80.5 -60.5t111 -21q51 0 85.5 5.5t46.5 10.5v266z" />
<glyph unicode="H" horiz-adv-x="692" d="M534 693h68v-693h-68v333h-376v-333h-68v693h68v-301h376v301z" />
<glyph unicode="I" horiz-adv-x="248" d="M90 693h68v-693h-68v693z" />
<glyph unicode="J" horiz-adv-x="487" d="M400 218q0 -50 -10 -92.5t-34.5 -74t-65 -49t-101.5 -17.5q-36 0 -66 6.5t-53 15.5t-38.5 19t-23.5 18l32 55q9 -8 22.5 -17.5t31.5 -17.5t40 -13t48 -5q77 0 113.5 40.5t36.5 138.5v468h68v-475z" />
<glyph unicode="K" horiz-adv-x="599" d="M513 0q-34 52 -76.5 103t-89.5 96t-95.5 82t-93.5 62v-343h-68v693h68v-323q38 34 84.5 78.5t92 89.5t85.5 86t64 69h82q-29 -31 -70 -73.5t-87 -87.5t-91.5 -88.5t-81.5 -76.5q29 -18 62.5 -44.5t68 -58t68 -66t63 -69.5t53 -68t38.5 -61h-76z" />
<glyph unicode="L" horiz-adv-x="502" d="M484 59v-59h-394v693h68v-634h326z" />
<glyph unicode="M" horiz-adv-x="865" d="M401 100q-10 25 -28.5 66t-41.5 89.5t-47 100t-46 96.5t-39 79t-25 48q-13 -125 -20.5 -271.5t-13.5 -307.5h-67q9 189 20.5 362t28.5 331h60q30 -50 64 -115.5t67.5 -136t65 -139t55.5 -123.5q24 55 55.5 123.5t65 139t67.5 136t64 115.5h57q17 -158 28.5 -331 t20.5 -362h-69q-6 161 -13.5 307.5t-20.5 271.5q-8 -14 -25 -48t-39 -79t-46 -96.5t-47 -100t-41.5 -89.5t-28.5 -66h-61z" />
<glyph unicode="N" horiz-adv-x="709" d="M562 0q-19 35 -48.5 82t-64.5 100.5t-74 110t-77.5 110t-75 100.5t-65.5 81v-584h-67v693h54q51 -57 109.5 -131.5t114.5 -152t104.5 -151.5t79.5 -129v564h67v-693h-57z" />
<glyph unicode="O" horiz-adv-x="774" d="M712 347q0 -89 -26 -157t-70.5 -113.5t-103.5 -68.5t-125 -23t-125 23t-103.5 68.5t-70.5 113.5t-26 157t26 156.5t70.5 113t103.5 68.5t125 23t125 -23t103.5 -68.5t70.5 -113t26 -156.5zM640 347q0 70 -18 125.5t-51 94.5t-79.5 59.5t-104.5 20.5t-104.5 -20.5 t-79.5 -59.5t-51 -94.5t-18 -125.5t18 -125.5t51 -94.5t79.5 -60t104.5 -21t104.5 21t79.5 60t51 94.5t18 125.5z" />
<glyph unicode="P" horiz-adv-x="592" d="M265 699q147 0 219 -56t72 -159q0 -59 -21 -100.5t-60 -67t-95.5 -37t-127.5 -11.5h-94v-268h-68v680q36 10 84.5 14.5t90.5 4.5zM268 640q-38 0 -64.5 -2.5t-45.5 -4.5v-306h86q55 0 99.5 6.5t76 24t48.5 48.5t17 79q0 46 -18.5 76t-49 47.5t-69.5 24.5t-80 7z" />
<glyph unicode="Q" horiz-adv-x="774" d="M712 347q0 -80 -21 -142t-57 -107t-85 -72t-105 -36q4 -28 25.5 -48t52 -34t67.5 -22.5t72 -13.5l-14 -57q-38 7 -82 17.5t-83.5 29.5t-68.5 48.5t-38 74.5q-64 2 -121 26t-99.5 69.5t-67.5 112.5t-25 154q0 89 26 156.5t70.5 113t103.5 68.5t125 23t125 -23t103.5 -68.5 t70.5 -113t26 -156.5zM640 347q0 70 -18 125.5t-51 94.5t-79.5 59.5t-104.5 20.5t-104.5 -20.5t-79.5 -59.5t-51 -94.5t-18 -125.5t18 -125.5t51 -94.5t79.5 -60t104.5 -21t104.5 21t79.5 60t51 94.5t18 125.5z" />
<glyph unicode="R" horiz-adv-x="618" d="M552 485q0 -78 -41 -123t-108 -65q16 -20 41.5 -54t52.5 -74.5t53 -84.5t44 -84h-73q-21 40 -45.5 80t-50 77.5t-49.5 69.5l-42 56q-32 -3 -64 -3h-112v-280h-68v680q36 10 84.5 14.5t89.5 4.5q143 0 215.5 -54t72.5 -160zM272 640q-38 0 -66.5 -2.5t-47.5 -4.5v-295h94 q47 0 89 4.5t73 20t49 44.5t18 79q0 46 -18 76t-47 47.5t-66.5 24t-77.5 6.5z" />
<glyph unicode="S" horiz-adv-x="517" d="M239 44q81 0 126 29.5t45 95.5q0 38 -14.5 63.5t-38.5 43t-55 30t-65 26.5q-43 17 -77 35t-58 40.5t-36.5 51.5t-12.5 68q0 89 59 135t164 46q28 0 55 -4t50.5 -10.5t43 -14.5t32.5 -17l-24 -57q-29 20 -70.5 32t-89.5 12q-33 0 -60.5 -6.5t-47.5 -21t-31.5 -36.5 t-11.5 -53q0 -32 12 -54t33.5 -38t50.5 -29t63 -27q41 -17 77.5 -34t63.5 -40t43 -56t16 -81q0 -94 -65.5 -141t-177.5 -47q-40 0 -73 5t-59 12.5t-44 15.5t-28 14l22 59q10 -6 27 -14t40 -15.5t52 -12.5t64 -5z" />
<glyph unicode="T" horiz-adv-x="548" d="M530 693v-59h-222v-634h-68v634h-222v59h512z" />
<glyph unicode="U" horiz-adv-x="680" d="M340 -15q-69 0 -117.5 21t-78.5 58t-43.5 86.5t-13.5 106.5v436h68v-427q0 -57 13.5 -98.5t37.5 -68.5t58 -40t76 -13t76 13t58 40t37.5 68.5t13.5 98.5v427h68v-436q0 -57 -13.5 -106.5t-43.5 -86.5t-78.5 -58t-117.5 -21z" />
<glyph unicode="V" horiz-adv-x="624" d="M86 693q30 -89 58 -168.5t55 -154t55 -146t60 -144.5q31 72 59.5 143.5t56 146t55 154.5t57.5 169h72q-46 -131 -82.5 -230t-68 -179t-60 -147.5t-59.5 -136.5h-63q-31 69 -60 136.5t-60.5 147.5t-68 179t-82.5 230h76z" />
<glyph unicode="W" horiz-adv-x="921" d="M491 608q48 -161 96.5 -291.5t94.5 -239.5q35 118 69.5 278t66.5 338h67q-18 -107 -36.5 -200.5t-38.5 -178t-42 -162t-48 -152.5h-73q-24 57 -47.5 114t-46.5 117.5t-46 126.5t-47 140q-24 -74 -47.5 -140t-46.5 -126.5t-46.5 -117.5t-47.5 -114h-72q-27 75 -49.5 152.5 t-42 162t-37 178t-35.5 200.5h70q15 -88 31 -172.5t33.5 -163.5t36 -149.5t36.5 -130.5q43 111 92 240.5t97 290.5h59z" />
<glyph unicode="X" horiz-adv-x="608" d="M490 693h76l-223 -325q65 -92 127 -184.5t108 -183.5h-74q-15 30 -38.5 69t-51 82t-57 86t-56.5 81q-27 -38 -56.5 -81t-57 -86t-51 -82t-38.5 -69h-71q46 91 108 183t126 183l-223 327h78l187 -279z" />
<glyph unicode="Y" horiz-adv-x="569" d="M251 0v285q-71 109 -130.5 210.5t-110.5 197.5h79q42 -88 92.5 -178.5t105.5 -172.5q53 82 104 172.5t94 178.5h74q-53 -95 -112 -197.5t-128 -208.5v-287h-68z" />
<glyph unicode="Z" horiz-adv-x="560" d="M510 631q-24 -28 -55.5 -68t-67.5 -87.5t-73.5 -101t-74 -108t-69 -107.5t-58.5 -100h408v-59h-482v51q22 43 52.5 94.5t65.5 106t73 109.5t75 105.5t70.5 93.5t61.5 74h-379v59h453v-62z" />
<glyph unicode="[" horiz-adv-x="310" d="M100 783h202v-50h-140v-868h140v-50h-202v968z" />
<glyph unicode="\" horiz-adv-x="359" d="M-23 783h64l341 -968h-66z" />
<glyph unicode="]" horiz-adv-x="310" d="M210 -185h-202v50h140v868h-140v50h202v-968z" />
<glyph unicode="^" horiz-adv-x="564" d="M502 356l-49 -26l-171 308l-171 -308l-49 26l188 337h64z" />
<glyph unicode="_" horiz-adv-x="490" d="M-5 -129h500v-56h-500v56z" />
<glyph unicode="`" d="M106 773l158 -152l-33 -38l-171 139z" />
<glyph unicode="a" horiz-adv-x="509" d="M249 47q38 0 66.5 2.5t48.5 6.5v182q-11 5 -35 10.5t-66 5.5q-24 0 -50 -3.5t-48 -15t-36 -31.5t-14 -53q0 -29 9.5 -49t27 -32t42 -17.5t55.5 -5.5zM243 529q51 0 86.5 -14.5t57.5 -40t32 -60.5t10 -76v-326q-10 -3 -29 -6.5t-44 -7.5t-55.5 -6.5t-62.5 -2.5 q-41 0 -75.5 9t-60 28.5t-40 50t-14.5 74.5q0 42 16 72t45 49.5t69 28.5t87 9q14 0 29.5 -1.5t30 -4t25 -5t14.5 -4.5v32q0 27 -4 52.5t-17.5 46t-38 33t-64.5 12.5q-57 0 -85 -8t-41 -13l-9 57q17 8 52.5 15t85.5 7z" />
<glyph unicode="b" horiz-adv-x="583" d="M151 486q17 13 54.5 27.5t88.5 14.5q56 0 99.5 -20t73.5 -56t45.5 -85.5t15.5 -108.5q0 -63 -18.5 -113t-52 -85t-80 -53.5t-103.5 -18.5q-69 0 -114 9t-74 19v748l65 12v-290zM151 61q15 -5 44.5 -9.5t77.5 -4.5q84 0 135 54.5t51 156.5q0 43 -9 81.5t-29 67t-52.5 45.5 t-80.5 17q-23 0 -44 -4.5t-39 -11.5t-31.5 -15t-22.5 -15v-362z" />
<glyph unicode="c" horiz-adv-x="460" d="M300 -11q-60 0 -106 19t-76.5 54.5t-46.5 85t-16 109.5q0 61 16.5 111t47.5 86t75 55.5t99 19.5q42 0 78.5 -7t56.5 -18l-17 -56q-20 10 -45 16t-67 6q-86 0 -130.5 -55.5t-44.5 -157.5q0 -46 10 -84.5t32.5 -66t58 -43t86.5 -15.5q42 0 70.5 9.5t41.5 16.5l14 -56 q-18 -10 -56.5 -19.5t-80.5 -9.5z" />
<glyph unicode="d" horiz-adv-x="583" d="M497 16q-29 -10 -74 -19t-114 -9q-57 0 -103.5 18.5t-80 53.5t-52 85t-18.5 113q0 59 15.5 108.5t45.5 85.5t73.5 56t99.5 20q51 0 88.5 -14.5t54.5 -27.5v278l65 12v-760zM432 423q-9 7 -22.5 15t-31.5 15t-39 11.5t-44 4.5q-48 0 -80.5 -17t-52.5 -45.5t-29 -67 t-9 -81.5q0 -102 51 -156.5t135 -54.5q48 0 77.5 4.5t44.5 9.5v362z" />
<glyph unicode="e" horiz-adv-x="548" d="M55 259q0 68 19.5 118.5t51 84.5t72 50.5t83.5 16.5q95 0 151.5 -62t56.5 -191q0 -8 -0.5 -16t-1.5 -15h-363q3 -95 47 -146t140 -51q53 0 84 10t45 17l12 -56q-14 -8 -52.5 -19t-90.5 -11q-68 0 -116 20t-79 56t-45 85.5t-14 108.5zM422 300q-2 81 -38 126t-102 45 q-35 0 -62.5 -14t-48 -37.5t-32 -54.5t-13.5 -65h296z" />
<glyph unicode="f" d="M276 776q42 0 68.5 -6.5t34.5 -11.5l-13 -56q-11 5 -32.5 10.5t-54.5 5.5q-69 0 -98.5 -35t-29.5 -112v-54h208v-55h-208v-462h-65v573q0 101 46.5 152t143.5 51z" />
<glyph unicode="g" horiz-adv-x="573" d="M423 60q-6 -5 -18 -11.5t-29.5 -13.5t-40 -11.5t-50.5 -4.5q-45 0 -87 14t-73.5 44t-50.5 77.5t-19 115.5q0 55 17 102t48.5 81.5t77 54t102.5 19.5q72 0 115.5 -9.5t71.5 -18.5v-472q0 -116 -60 -165.5t-181 -49.5q-50 0 -90.5 7.5t-69.5 17.5l13 59q24 -11 65.5 -19 t83.5 -8q92 0 133.5 35.5t41.5 121.5v34zM422 454q-17 5 -44 9.5t-77 4.5q-42 0 -74.5 -14.5t-55.5 -41t-35 -63t-12 -80.5q0 -51 14 -87.5t36.5 -59.5t51.5 -33.5t59 -10.5q44 0 80.5 13t56.5 30v333z" />
<glyph unicode="h" horiz-adv-x="569" d="M86 0v764l65 12v-274q32 12 65 18.5t66 6.5q60 0 100 -17t64 -48.5t33.5 -75.5t9.5 -97v-289h-65v268q0 55 -7.5 93t-25 62t-46.5 34.5t-73 10.5q-17 0 -36.5 -3t-36.5 -6.5t-30.5 -7.5t-17.5 -6v-445h-65z" />
<glyph unicode="i" horiz-adv-x="237" d="M151 0h-65v517h65v-517zM166 673q0 -23 -14 -36.5t-34 -13.5t-34 13.5t-14 36.5t14 36.5t34 13.5t34 -13.5t14 -36.5z" />
<glyph unicode="j" horiz-adv-x="237" d="M-11 -187q-11 0 -27.5 3t-24.5 7l9 53q7 -2 19 -4t23 -2q59 0 78.5 33t19.5 99v515h65v-512q0 -98 -37 -145t-125 -47zM166 673q0 -23 -14 -36.5t-34 -13.5t-34 13.5t-14 36.5t14 36.5t34 13.5t34 -13.5t14 -36.5z" />
<glyph unicode="k" horiz-adv-x="495" d="M224 281q31 -21 66.5 -54t70 -71.5t65 -79t51.5 -76.5h-77q-24 40 -54.5 78.5t-64 72.5t-67 62t-63.5 47v-260h-65v764l65 12v-492q25 24 56 55t62.5 63t59.5 62t48 53h78q-23 -24 -52 -54t-60.5 -62.5t-62.5 -63.5z" />
<glyph unicode="l" horiz-adv-x="255" d="M217 -9q-33 1 -57.5 8.5t-41 23t-25 40t-8.5 61.5v640l65 12v-650q0 -24 4.5 -38.5t13.5 -23t23.5 -12.5t34.5 -7z" />
<glyph unicode="m" horiz-adv-x="863" d="M86 499q29 8 75.5 18t120.5 10q98 0 142 -57q5 4 19.5 13.5t36.5 19.5t51.5 17t65.5 7q59 0 95.5 -17.5t56.5 -49t27 -75.5t7 -96v-289h-65v268q0 51 -4.5 88.5t-18 62t-38.5 37t-65 12.5q-30 0 -54.5 -5.5t-42.5 -13.5t-29.5 -16t-16.5 -12q9 -26 13.5 -58.5t4.5 -68.5 v-294h-65v268q0 51 -4.5 88.5t-18.5 62t-39.5 37t-67.5 12.5q-47 0 -79.5 -5t-41.5 -9v-454h-65v499z" />
<glyph unicode="n" horiz-adv-x="569" d="M86 499q29 8 78 18t120 10q59 0 98.5 -17t63 -48.5t33.5 -75.5t10 -97v-289h-65v268q0 55 -7.5 93t-25 62t-46 34.5t-71.5 10.5q-46 0 -79.5 -5t-43.5 -9v-454h-65v499z" />
<glyph unicode="o" horiz-adv-x="582" d="M527 258q0 -61 -17.5 -111t-49 -85t-74.5 -54.5t-95 -19.5t-95 19.5t-74.5 54.5t-49 85t-17.5 111t17.5 111t49 85.5t74.5 55t95 19.5t95 -19.5t74.5 -55t49 -85.5t17.5 -111zM458 258q0 97 -45 154.5t-122 57.5t-122 -57.5t-45 -154.5t45 -154t122 -57t122 57t45 154z " />
<glyph unicode="p" horiz-adv-x="583" d="M151 93q9 -7 22.5 -15t31.5 -15t39 -11.5t44 -4.5q48 0 80.5 16.5t52.5 45t29 67t9 81.5q0 102 -51 156.5t-135 54.5q-48 0 -77.5 -4.5t-44.5 -9.5v-361zM151 -185h-65v684q29 10 74 19t114 9q57 0 103.5 -18.5t80 -53.5t52 -85t18.5 -113q0 -59 -15.5 -108.5t-45.5 -85 t-73.5 -55.5t-99.5 -20q-51 0 -88.5 14.5t-54.5 27.5v-215z" />
<glyph unicode="q" horiz-adv-x="583" d="M432 454q-15 5 -44.5 9.5t-77.5 4.5q-84 0 -135 -54.5t-51 -156.5q0 -43 9 -81.5t29 -67t52.5 -45t80.5 -16.5q23 0 44 4.5t39 11.5t31.5 15t22.5 15v361zM432 30q-17 -13 -54.5 -27.5t-88.5 -14.5q-56 0 -99.5 20t-73.5 55.5t-45.5 85t-15.5 108.5q0 63 18.5 113t52 85 t80 53.5t103.5 18.5q69 0 114 -9t74 -19v-684h-65v215z" />
<glyph unicode="r" horiz-adv-x="374" d="M262 527q32 0 60.5 -5t39.5 -10l-13 -56q-8 4 -32.5 8.5t-64.5 4.5q-42 0 -67.5 -6t-33.5 -10v-453h-65v493q25 11 69 22.5t107 11.5z" />
<glyph unicode="s" horiz-adv-x="428" d="M192 46q56 0 92.5 18.5t36.5 62.5q0 21 -6.5 36t-21.5 27t-39.5 23t-60.5 26q-29 12 -55 24.5t-46 29t-32 39.5t-12 56q0 63 47.5 102t130.5 39q53 0 87.5 -9t48.5 -16l-15 -58q-12 6 -40.5 16t-83.5 10q-22 0 -41.5 -4.5t-34.5 -14t-24 -24t-9 -35.5t8 -36t23.5 -26.5 t38 -21.5t51.5 -22q30 -12 57.5 -24.5t48.5 -30t34 -42t13 -61.5q0 -70 -52.5 -106t-143.5 -36q-68 0 -104 11.5t-48 17.5l17 59q3 -2 13 -6.5t27 -10t40.5 -9.5t54.5 -4z" />
<glyph unicode="t" horiz-adv-x="387" d="M147 517h206v-55h-206v-275q0 -44 7.5 -71.5t21.5 -42.5t34 -20t44 -5q41 0 66 9.5t39 17.5l16 -54q-14 -9 -49 -20.5t-76 -11.5q-48 0 -80.5 12.5t-52 38t-27.5 63.5t-8 90v476l65 12v-164z" />
<glyph unicode="u" horiz-adv-x="569" d="M483 18q-29 -8 -78 -18t-120 -10q-58 0 -97 17t-63 48t-34.5 75t-10.5 97v290h65v-269q0 -55 8 -93t26 -61.5t46.5 -34t69.5 -10.5q46 0 80 5t43 9v454h65v-499z" />
<glyph unicode="v" horiz-adv-x="480" d="M242 70q21 43 43 98.5t42.5 115t38 120t29.5 113.5h65q-18 -71 -40 -140t-46.5 -135t-51 -127t-51.5 -115h-62q-26 54 -52 115t-50.5 127t-46.5 135t-40 140h69q12 -53 29.5 -113.5t38 -120t42.5 -115t43 -98.5z" />
<glyph unicode="w" horiz-adv-x="775" d="M419 517q9 -50 23.5 -106.5t32 -115t37 -115.5t39.5 -107q17 38 36 92.5t38 115t35.5 122t27.5 114.5h64q-36 -152 -78.5 -278t-93.5 -239h-61q-15 35 -31.5 78.5t-34 93t-34 104t-31.5 111.5q-15 -57 -31.5 -111.5t-34 -104t-34 -93t-31.5 -78.5h-62q-51 113 -93.5 239 t-78.5 278h69q11 -53 27.5 -114.5t35.5 -122t38.5 -114.5t36.5 -92q19 50 38.5 107t36.5 115t32 114.5t26 106.5h56z" />
<glyph unicode="x" horiz-adv-x="499" d="M248 234q-22 -29 -44 -61t-42.5 -63t-37.5 -59.5t-29 -50.5h-67q41 77 86 143.5t92 130.5l-168 243h76l134 -198l136 198h71l-165 -239q21 -28 45 -61t48 -68.5t46.5 -73.5t41.5 -75h-70q-12 22 -29 50.5t-37.5 59.5t-43 63t-43.5 61z" />
<glyph unicode="y" horiz-adv-x="474" d="M227 -11q-33 61 -63.5 127t-57 133.5t-48.5 135t-38 132.5h69q11 -48 28 -103.5t38.5 -114.5t47.5 -121t56 -122q22 62 39 117t31.5 109.5t28 111.5t28.5 123h65q-32 -145 -73 -282t-89 -251q-19 -45 -39 -77.5t-44.5 -53.5t-57 -31t-76.5 -10q-25 0 -45.5 6t-25.5 9 l13 54q4 -3 22.5 -8.5t38.5 -5.5q28 0 50.5 6t40.5 20.5t32.5 37.5t28.5 58z" />
<glyph unicode="z" horiz-adv-x="455" d="M407 464q-23 -26 -60 -72t-79 -102.5t-83 -118t-72 -116.5h303v-55h-378v47q26 49 64.5 108t79.5 116.5t80 108t66 82.5h-275v55h354v-53z" />
<glyph unicode="{" horiz-adv-x="319" d="M132 289q16 -9 29 -21.5t22 -31.5t13.5 -46t4.5 -64v-107q0 -47 2 -78.5t12.5 -51t32.5 -27.5t63 -8v-50h-8q-48 0 -80 11t-50.5 32t-26 52t-7.5 72v194q0 18 -5.5 35.5t-17.5 31.5t-30 23t-43 9v49q25 0 43 9t30 23t17.5 31.5t5.5 35.5v194q0 40 7.5 71.5t26 52.5 t50.5 32t80 11h8v-50q-41 0 -63 -8t-32.5 -27.5t-12.5 -51t-2 -78.5v-107q0 -37 -4.5 -63.5t-13.5 -45.5t-22 -31.5t-29 -21.5z" />
<glyph unicode="|" horiz-adv-x="262" d="M100 783h62v-968h-62v968z" />
<glyph unicode="}" horiz-adv-x="319" d="M187 289q-16 9 -29 21.5t-22 31.5t-13.5 45.5t-4.5 63.5v107q0 47 -2 78.5t-12.5 51t-32.5 27.5t-63 8v50h8q48 0 80 -11t50.5 -32t26 -52.5t7.5 -71.5v-194q0 -18 5.5 -35.5t17.5 -31.5t30 -23t43 -9v-49q-25 0 -43 -9t-30 -23t-17.5 -31.5t-5.5 -35.5v-194 q0 -41 -7.5 -72t-26 -52t-50.5 -32t-80 -11h-8v50q41 0 63 8t32.5 27.5t12.5 51t2 78.5v107q0 37 4.5 64t13.5 46t22 31.5t29 21.5z" />
<glyph unicode="~" horiz-adv-x="564" d="M384 222q-34 0 -61 14t-51.5 31t-48 31t-49.5 14q-19 0 -32 -9.5t-21.5 -23t-13 -27t-6.5 -21.5l-51 12q4 18 12.5 39.5t23 40t37.5 31t57 12.5t61 -14t51.5 -31t48 -31t49.5 -14q19 0 32 9.5t21.5 23t13 27t6.5 21.5l51 -12q-5 -18 -13 -39.5t-22.5 -40t-37.5 -31 t-57 -12.5z" />
<glyph unicode="&#xa1;" horiz-adv-x="274" d="M172 -185h-70v190q0 86 5.5 153t14.5 134h30q4 -33 7.5 -66t6.5 -68t4.5 -72.5t1.5 -80.5v-190zM192 462q0 -23 -14.5 -39t-40.5 -16t-40.5 16t-14.5 39t14.5 39t40.5 16t40.5 -16t14.5 -39z" />
<glyph unicode="&#xa2;" horiz-adv-x="564" d="M304 34q-48 7 -85 29t-61.5 55.5t-37.5 77t-13 94.5t13.5 95.5t39 78.5t62 56.5t82.5 29.5v143h59v-141q31 0 59.5 -6.5t56.5 -17.5l-17 -55q-21 9 -49.5 16t-59.5 7q-87 0 -132 -51.5t-45 -154.5q0 -44 10.5 -81t33 -64t58 -42t85.5 -15q42 0 71 8.5t42 14.5l12 -54 q-6 -4 -19.5 -8.5t-30.5 -8t-36.5 -6t-38.5 -3.5v-140h-59v143z" />
<glyph unicode="&#xa3;" horiz-adv-x="564" d="M242 364h201v-55h-201v-9q0 -59 -3.5 -120.5t-13.5 -122.5h303v-57h-379q11 69 18.5 141.5t7.5 155.5v12h-96v55h96v96q0 74 15 122t42.5 75.5t65 38t82.5 10.5q42 0 73.5 -8.5t54.5 -19.5l-18 -59q-49 26 -118 26q-31 0 -55.5 -8t-41 -28.5t-25 -54.5t-8.5 -85v-105z " />
<glyph unicode="&#xa4;" horiz-adv-x="564" d="M95 347q0 33 9 62.5t26 52.5l-74 76l40 41l76 -78q23 17 51 26t59 9t59 -9t51 -26l76 78l40 -41l-74 -76q17 -23 26 -52.5t9 -62.5t-9 -62.5t-26 -52.5l74 -76l-40 -41l-76 78q-23 -17 -51 -26t-59 -9t-59 9t-51 26l-76 -78l-40 41l74 76q-17 23 -26 52.5t-9 62.5z M411 347q0 30 -10 55t-27.5 43t-41 28t-50.5 10t-50.5 -10t-41 -28t-27.5 -43t-10 -55t10 -55t27.5 -43t41 -28t50.5 -10t50.5 10t41 28t27.5 43t10 55z" />
<glyph unicode="&#xa5;" horiz-adv-x="564" d="M250 0v115h-163v53h163v119h-163v53h149q-60 93 -111 179.5t-94 173.5h69q39 -83 86 -164.5t98 -157.5q51 76 97.5 157.5t85.5 164.5h66q-43 -87 -94.5 -173.5t-111.5 -179.5h151v-53h-163v-119h163v-53h-163v-115h-65z" />
<glyph unicode="&#xa6;" horiz-adv-x="262" d="M100 191h62v-376h-62v376zM100 783h62v-376h-62v376z" />
<glyph unicode="&#xa7;" horiz-adv-x="482" d="M72 -28q26 -11 58 -20.5t91 -9.5q26 0 49 5t40.5 15.5t27.5 26.5t10 39q0 21 -7 37t-22.5 29t-40 24t-58.5 23q-35 12 -66.5 24.5t-55 31t-37.5 45.5t-14 67q0 28 9.5 51.5t23.5 41.5t31.5 31t32.5 22q-30 22 -44.5 47.5t-14.5 62.5q0 66 44.5 104.5t131.5 38.5 q60 0 95 -9.5t50 -15.5l-16 -53q-17 8 -48.5 17.5t-81.5 9.5q-49 0 -81 -19.5t-32 -61.5q0 -41 26.5 -64t88.5 -42q33 -11 64 -23t56 -30.5t40 -46.5t15 -70q0 -25 -8 -47t-21.5 -41t-31 -33.5t-35.5 -24.5q33 -20 51.5 -50t18.5 -67q0 -72 -53.5 -109t-143.5 -37 q-60 0 -97.5 9.5t-60.5 20.5zM227 420q-11 4 -21.5 7.5t-15.5 5.5q-35 -18 -58 -46t-23 -70q0 -29 11.5 -48t31.5 -33t47 -24.5t58 -20.5q10 -3 21 -7t18 -7q38 19 58.5 51t20.5 67q0 28 -13 48t-34 34t-47.5 24t-53.5 19z" />
<glyph unicode="&#xa8;" d="M148 673q0 -22 -13 -35t-33 -13t-33 13t-13 35t13 35t33 13t33 -13t13 -35zM320 673q0 -22 -13 -35t-33 -13t-33 13t-13 35t13 35t33 13t33 -13t13 -35z" />
<glyph unicode="&#xa9;" horiz-adv-x="826" d="M418 142q-39 0 -72.5 14t-58.5 40t-39 64.5t-14 87.5q0 48 15.5 85.5t41.5 64t60 40t71 13.5q49 0 79.5 -13.5t41.5 -21.5l-19 -45q-15 8 -38.5 17.5t-63.5 9.5q-55 0 -91.5 -39t-36.5 -111q0 -74 35.5 -113.5t96.5 -39.5q43 0 67.5 9.5t35.5 16.5l17 -48 q-13 -8 -46 -19.5t-82 -11.5zM752 347q0 -86 -28 -153t-74.5 -113.5t-108 -71t-128.5 -24.5t-128.5 24.5t-108 71t-74.5 113.5t-28 153q0 85 28 152.5t74.5 113.5t108 70.5t128.5 24.5t128.5 -24.5t108 -70.5t74.5 -113.5t28 -152.5zM693 347q0 69 -21 126t-58 97.5 t-88.5 62.5t-112.5 22t-112.5 -22t-88.5 -62.5t-58 -97.5t-21 -126t21 -126t58 -97.5t88.5 -63t112.5 -22.5t112.5 22.5t88.5 63t58 97.5t21 126z" />
<glyph unicode="&#xaa;" horiz-adv-x="386" d="M195 379q22 0 43 1.5t32 3.5v120q-13 2 -30 4t-35 2q-21 0 -40 -3t-33.5 -10t-22.5 -19.5t-8 -30.5q0 -32 20 -50t74 -18zM189 704q37 0 63 -9.5t42 -27t23 -42t7 -53.5v-226q-12 -3 -28.5 -5.5t-34 -4.5t-35 -3t-30.5 -1q-67 0 -108.5 26.5t-41.5 84.5q0 30 12.5 51.5 t34 35t50 20t60.5 6.5q11 0 29 -2t38 -6v9q0 18 -2 35.5t-10 31.5t-24.5 23t-44.5 9q-26 0 -50.5 -2.5t-44.5 -9.5l-7 46q17 5 43.5 9.5t58.5 4.5z" />
<glyph unicode="&#xab;" horiz-adv-x="452" d="M188 72l-152 212l152 211l41 -26l-116 -185l116 -186zM365 72l-152 212l152 211l41 -26l-116 -185l116 -186z" />
<glyph unicode="&#xac;" horiz-adv-x="564" d="M508 48h-58v276h-394v56h452v-332z" />
<glyph unicode="&#xad;" horiz-adv-x="282" d="M28 321h226v-63h-226v63z" />
<glyph unicode="&#xae;" horiz-adv-x="826" d="M521 149q-26 47 -54 89.5t-49 67.5q-7 -1 -13 -1h-11h-63v-156h-55v387q23 5 51.5 8t53.5 3q85 0 129.5 -31t44.5 -94q0 -36 -20 -64.5t-59 -42.5q8 -9 21.5 -27.5t28.5 -41.5t30 -49t26 -48h-61zM331 350h50q25 0 46 3t36.5 11.5t24 22.5t8.5 36q0 21 -9.5 35.5 t-25 23.5t-35.5 13t-42 4q-15 0 -28.5 -0.5t-24.5 -1.5v-147zM752 347q0 -86 -28 -153t-74.5 -113.5t-108 -71t-128.5 -24.5t-128.5 24.5t-108 71t-74.5 113.5t-28 153q0 85 28 152.5t74.5 113.5t108 70.5t128.5 24.5t128.5 -24.5t108 -70.5t74.5 -113.5t28 -152.5zM693 347 q0 69 -21 126t-58 97.5t-88.5 62.5t-112.5 22t-112.5 -22t-88.5 -62.5t-58 -97.5t-21 -126t21 -126t58 -97.5t88.5 -63t112.5 -22.5t112.5 22.5t88.5 63t58 97.5t21 126z" />
<glyph unicode="&#xaf;" d="M56 649v55h265v-55h-265z" />
<glyph unicode="&#xb0;" horiz-adv-x="318" d="M159 511q-26 0 -49.5 9t-41.5 25.5t-28.5 41t-10.5 55.5t10.5 55.5t28.5 41t41.5 25.5t49.5 9t49.5 -9t41.5 -25.5t28.5 -41t10.5 -55.5t-10.5 -55.5t-28.5 -41t-41.5 -25.5t-49.5 -9zM159 556q35 0 58.5 23t23.5 63t-23.5 63t-58.5 23t-58.5 -23t-23.5 -63t23.5 -63 t58.5 -23z" />
<glyph unicode="&#xb1;" horiz-adv-x="564" d="M56 56h452v-56h-452v56zM56 401h197v217h58v-217h197v-56h-197v-217h-58v217h-197v56z" />
<glyph unicode="&#xb2;" horiz-adv-x="359" d="M284 600q0 -21 -7.5 -39t-19.5 -33.5t-27.5 -29.5t-32.5 -27q-26 -21 -42.5 -37t-26 -28t-13 -22t-3.5 -19h191v-48h-248q-1 5 -1 10v10q0 30 10 53.5t25.5 43t34.5 36t37 33.5q14 12 26 22.5t21 22t14.5 24.5t5.5 30q0 33 -20 45.5t-47 12.5q-17 0 -31.5 -4.5t-26.5 -11 t-20.5 -13t-12.5 -10.5l-27 38q17 18 47.5 33.5t75.5 15.5q56 0 87 -27t31 -81z" />
<glyph unicode="&#xb3;" horiz-adv-x="359" d="M146 357q57 0 77 19.5t20 48.5q0 21 -10 35t-26 23t-37.5 12.5t-43.5 3.5h-13v45h15q18 0 35.5 2.5t30.5 10t21 19.5t8 32q0 29 -18.5 41t-49.5 12q-32 0 -54 -9.5t-35 -18.5l-20 42q11 9 40 21t71 12q65 0 92.5 -26.5t27.5 -68.5q0 -62 -61 -87q37 -11 60 -36t23 -67 q0 -23 -8.5 -43.5t-26.5 -36.5t-46.5 -25t-68.5 -9q-38 0 -63 6.5t-41 14.5l13 47q14 -7 35.5 -13.5t52.5 -6.5z" />
<glyph unicode="&#xb4;" d="M316 722l-171 -139l-33 38l158 152z" />
<glyph unicode="&#xb5;" horiz-adv-x="575" d="M291 -10q-57 0 -92 15t-55 41q4 -32 4.5 -64.5t0.5 -60.5v-106h-63v702h65v-269q0 -55 8 -93t26 -61.5t46.5 -34t69.5 -10.5q46 0 80 5t43 9v454h65v-499q-29 -8 -78 -18t-120 -10z" />
<glyph unicode="&#xb6;" horiz-adv-x="616" d="M457 638q-14 2 -37.5 3.5t-42.5 1.5q-8 0 -17 -0.5t-14 -1.5v-826h-58v449q-55 4 -100 19t-76.5 41.5t-48.5 65t-17 90.5q0 55 23.5 96t65.5 68.5t100.5 41t128.5 13.5q32 0 74 -2.5t77 -10.5v-871h-58v823z" />
<glyph unicode="&#xb7;" horiz-adv-x="246" d="M178 294q0 -23 -14.5 -39t-40.5 -16t-40.5 16t-14.5 39t14.5 39t40.5 16t40.5 -16t14.5 -39z" />
<glyph unicode="&#xb8;" d="M206 -36q28 -12 44.5 -29.5t16.5 -46.5q0 -12 -4 -25.5t-15 -24.5t-30 -18t-49 -7q-20 0 -41 3.5t-30 8.5l8 43q11 -5 25 -7t34 -2q41 0 41 29q0 17 -14 26t-44 21q3 10 9 23t12 25t11.5 22t8.5 15h46q-7 -11 -15.5 -27.5t-13.5 -28.5z" />
<glyph unicode="&#xb9;" horiz-adv-x="359" d="M74 578l-13 42q35 11 70 30.5t60 48.5h37v-382h-54v304q-11 -8 -25.5 -15t-28.5 -13t-26.5 -10t-19.5 -5z" />
<glyph unicode="&#xba;" horiz-adv-x="437" d="M391 518q0 -42 -13 -76.5t-36 -59t-55 -38t-69 -13.5t-68.5 13.5t-54.5 38t-36 59t-13 76.5t13 76.5t36 59t54.5 38t68.5 13.5t69 -13.5t55 -38t36 -59t13 -76.5zM332 518q0 63 -31 100.5t-83 37.5q-51 0 -82 -37.5t-31 -100.5t31 -100.5t82 -37.5q52 0 83 37.5t31 100.5 z" />
<glyph unicode="&#xbb;" horiz-adv-x="452" d="M46 98l116 186l-116 185l41 26l152 -211l-152 -212zM223 98l116 186l-116 185l41 26l152 -211l-152 -212z" />
<glyph unicode="&#xbc;" horiz-adv-x="874" d="M74 578l-13 42q35 11 70 30.5t60 48.5h37v-382h-54v304q-11 -8 -25.5 -15t-28.5 -13t-26.5 -10t-19.5 -5zM601 693h66l-395 -693h-66zM840 141v-44h-51v-96h-53v96h-188v33q10 20 30.5 53t47 70t57 72t59.5 58h47v-242h51zM736 141v179q-17 -17 -36 -40t-36.5 -47.5 t-33 -49t-25.5 -42.5h131z" />
<glyph unicode="&#xbd;" horiz-adv-x="874" d="M74 578l-13 42q35 11 70 30.5t60 48.5h37v-382h-54v304q-11 -8 -25.5 -15t-28.5 -13t-26.5 -10t-19.5 -5zM580 693h66l-395 -693h-66zM799 284q0 -21 -7.5 -39t-19.5 -33.5t-27.5 -29.5t-32.5 -27q-26 -21 -42.5 -37t-26 -28t-13 -22t-3.5 -19h191v-48h-248q-1 5 -1 10 v10q0 30 10 53.5t25.5 43t34.5 36t37 33.5q14 12 26 22.5t21 22t14.5 24.5t5.5 30q0 33 -20 45.5t-47 12.5q-17 0 -31.5 -4.5t-26.5 -11t-20.5 -13t-12.5 -10.5l-27 38q17 18 47.5 33.5t75.5 15.5q56 0 87 -27t31 -81z" />
<glyph unicode="&#xbe;" horiz-adv-x="874" d="M146 357q57 0 77 19.5t20 48.5q0 21 -10 35t-26 23t-37.5 12.5t-43.5 3.5h-13v45h15q18 0 35.5 2.5t30.5 10t21 19.5t8 32q0 29 -18.5 41t-49.5 12q-32 0 -54 -9.5t-35 -18.5l-20 42q11 9 40 21t71 12q65 0 92.5 -26.5t27.5 -68.5q0 -62 -61 -87q37 -11 60 -36t23 -67 q0 -23 -8.5 -43.5t-26.5 -36.5t-46.5 -25t-68.5 -9q-38 0 -63 6.5t-41 14.5l13 47q14 -7 35.5 -13.5t52.5 -6.5zM616 693h66l-395 -693h-66zM840 141v-44h-51v-96h-53v96h-188v33q10 20 30.5 53t47 70t57 72t59.5 58h47v-242h51zM736 141v179q-17 -17 -36 -40t-36.5 -47.5 t-33 -49t-25.5 -42.5h131z" />
<glyph unicode="&#xbf;" horiz-adv-x="380" d="M99 -39q0 -26 10 -43t26.5 -27t39 -14.5t47.5 -4.5q66 0 122 30l19 -54q-21 -12 -60.5 -23t-87.5 -11q-54 0 -89.5 13.5t-57 34t-30 45.5t-8.5 48q0 34 12.5 62t31.5 52t41.5 47t41.5 47t31.5 51.5t12.5 61.5v8.5t-1 7.5h51q4 -17 4 -37q0 -32 -11.5 -58.5t-29 -49.5 t-37.5 -45t-37.5 -44t-29 -45.5t-11.5 -51.5zM274 462q0 -23 -14.5 -39t-40.5 -16t-40.5 16t-14.5 39t14.5 39t40.5 16t40.5 -16t14.5 -39z" />
<glyph unicode="&#xc0;" horiz-adv-x="641" d="M556 0q-19 51 -36 98t-33 92h-337q-17 -45 -34 -92t-35 -98h-71q40 108 75 201.5t68.5 177t66.5 160.5t70 154h60q37 -77 70 -154t66.5 -160.5t68.5 -177t76 -201.5h-75zM318 615q-38 -86 -73.5 -175t-73.5 -192h295q-38 103 -74 192t-74 175zM228 929l158 -152l-33 -38 l-171 139z" />
<glyph unicode="&#xc1;" horiz-adv-x="641" d="M556 0q-19 51 -36 98t-33 92h-337q-17 -45 -34 -92t-35 -98h-71q40 108 75 201.5t68.5 177t66.5 160.5t70 154h60q37 -77 70 -154t66.5 -160.5t68.5 -177t76 -201.5h-75zM318 615q-38 -86 -73.5 -175t-73.5 -192h295q-38 103 -74 192t-74 175zM458 878l-171 -139l-33 38 l158 152z" />
<glyph unicode="&#xc2;" horiz-adv-x="641" d="M556 0q-19 51 -36 98t-33 92h-337q-17 -45 -34 -92t-35 -98h-71q40 108 75 201.5t68.5 177t66.5 160.5t70 154h60q37 -77 70 -154t66.5 -160.5t68.5 -177t76 -201.5h-75zM318 615q-38 -86 -73.5 -175t-73.5 -192h295q-38 103 -74 192t-74 175zM216 740l-28 31l132 147 l132 -147l-28 -31l-104 96z" />
<glyph unicode="&#xc3;" horiz-adv-x="641" d="M556 0q-19 51 -36 98t-33 92h-337q-17 -45 -34 -92t-35 -98h-71q40 108 75 201.5t68.5 177t66.5 160.5t70 154h60q37 -77 70 -154t66.5 -160.5t68.5 -177t76 -201.5h-75zM318 615q-38 -86 -73.5 -175t-73.5 -192h295q-38 103 -74 192t-74 175zM383 785q-22 0 -40 7 t-35 15q-19 10 -31 13.5t-22 3.5q-21 0 -33 -14t-22 -31l-38 18q5 12 13.5 26t20 26t27 20t35.5 8q22 0 40 -7t35 -15q19 -10 31 -13.5t22 -3.5q21 0 33 14t22 31l38 -18q-5 -12 -13.5 -26t-20 -26t-27 -20t-35.5 -8z" />
<glyph unicode="&#xc4;" horiz-adv-x="641" d="M556 0q-19 51 -36 98t-33 92h-337q-17 -45 -34 -92t-35 -98h-71q40 108 75 201.5t68.5 177t66.5 160.5t70 154h60q37 -77 70 -154t66.5 -160.5t68.5 -177t76 -201.5h-75zM318 615q-38 -86 -73.5 -175t-73.5 -192h295q-38 103 -74 192t-74 175zM279 829q0 -22 -13 -35 t-33 -13t-33 13t-13 35t13 35t33 13t33 -13t13 -35zM451 829q0 -22 -13 -35t-33 -13t-33 13t-13 35t13 35t33 13t33 -13t13 -35z" />
<glyph unicode="&#xc5;" horiz-adv-x="641" d="M415 742q0 -29 -13.5 -51t-34.5 -34q34 -72 65 -145.5t62.5 -153t65 -168t71.5 -190.5h-75q-19 51 -36 98t-33 92h-337q-17 -45 -34 -92t-35 -98h-71q37 102 70 190.5t64.5 168t62.5 153t65 145.5q-22 12 -35 34t-13 51q0 43 28.5 69t67.5 26q19 0 36.5 -7t30.5 -19.5 t20.5 -30t7.5 -38.5zM318 615q-38 -86 -73.5 -175t-73.5 -192h295q-38 103 -74 192t-74 175zM377 742q0 28 -16.5 43.5t-40.5 15.5t-40.5 -15.5t-16.5 -43.5q0 -29 16.5 -44t40.5 -15t40.5 15t16.5 44z" />
<glyph unicode="&#xc6;" horiz-adv-x="915" d="M464 0v190h-287q-26 -48 -51.5 -95t-49.5 -95h-70q54 107 107.5 201t106.5 178.5t106 162t107 151.5h417v-59h-318v-241h282v-58h-282v-276h344v-59h-412zM464 637q-69 -93 -132 -189.5t-122 -199.5h254v389z" />
<glyph unicode="&#xc7;" horiz-adv-x="609" d="M364 -36q28 -12 44.5 -29.5t16.5 -46.5q0 -12 -4 -25.5t-15 -24.5t-30 -18t-49 -7q-20 0 -41 3.5t-30 8.5l8 43q11 -5 25 -7t34 -2q41 0 41 29q0 17 -14 26t-44 21q4 11 10 25.5t13 28.5q-58 8 -107 35t-84.5 72.5t-55.5 108t-20 142.5q0 87 26.5 154.5t70.5 113.5 t102 69.5t121 23.5q39 0 71 -5t56 -12.5t41 -15t26 -13.5l-22 -59q-25 15 -63.5 29.5t-95.5 14.5q-65 0 -113.5 -22t-81.5 -62t-49.5 -95t-16.5 -122q0 -69 16.5 -124.5t48.5 -94.5t78.5 -60t106.5 -21q66 0 110.5 12.5t67.5 25.5l19 -58q-7 -5 -24 -11.5t-43 -13.5 t-60 -11.5t-76 -4.5h-5q-3 -5 -5 -10.5t-4 -10.5z" />
<glyph unicode="&#xc8;" horiz-adv-x="555" d="M90 0v693h400v-59h-332v-241h296v-58h-296v-276h358v-59h-426zM198 929l158 -152l-33 -38l-171 139z" />
<glyph unicode="&#xc9;" horiz-adv-x="555" d="M90 0v693h400v-59h-332v-241h296v-58h-296v-276h358v-59h-426zM428 878l-171 -139l-33 38l158 152z" />
<glyph unicode="&#xca;" horiz-adv-x="555" d="M90 0v693h400v-59h-332v-241h296v-58h-296v-276h358v-59h-426zM186 740l-28 31l132 147l132 -147l-28 -31l-104 96z" />
<glyph unicode="&#xcb;" horiz-adv-x="555" d="M90 0v693h400v-59h-332v-241h296v-58h-296v-276h358v-59h-426zM250 829q0 -22 -13 -35t-33 -13t-33 13t-13 35t13 35t33 13t33 -13t13 -35zM422 829q0 -22 -13 -35t-33 -13t-33 13t-13 35t13 35t33 13t33 -13t13 -35z" />
<glyph unicode="&#xcc;" horiz-adv-x="248" d="M90 693h68v-693h-68v693zM33 929l158 -152l-33 -38l-171 139z" />
<glyph unicode="&#xcd;" horiz-adv-x="248" d="M90 693h68v-693h-68v693zM263 878l-171 -139l-33 38l158 152z" />
<glyph unicode="&#xce;" horiz-adv-x="248" d="M90 693h68v-693h-68v693zM21 740l-28 31l132 147l132 -147l-28 -31l-104 96z" />
<glyph unicode="&#xcf;" horiz-adv-x="248" d="M90 693h68v-693h-68v693zM85 829q0 -22 -13 -35t-33 -13t-33 13t-13 35t13 35t33 13t33 -13t13 -35zM257 829q0 -22 -13 -35t-33 -13t-33 13t-13 35t13 35t33 13t33 -13t13 -35z" />
<glyph unicode="&#xd0;" horiz-adv-x="716" d="M654 347q0 -89 -28 -155t-78.5 -110t-120.5 -66t-154 -22q-42 0 -88 4.5t-81 13.5v323h-80v55h80v290q35 10 81 14.5t88 4.5q84 0 154 -22t120.5 -66t78.5 -110t28 -154zM172 60q6 -1 30.5 -4t78.5 -3q75 0 131 20.5t94 58.5t57 92.5t19 122.5t-19 122t-57 92t-94 58.5 t-131 20.5q-54 0 -78.5 -3t-30.5 -4v-243h132v-55h-132v-275z" />
<glyph unicode="&#xd1;" horiz-adv-x="709" d="M562 0q-19 35 -48.5 82t-64.5 100.5t-74 110t-77.5 110t-75 100.5t-65.5 81v-584h-67v693h54q51 -57 109.5 -131.5t114.5 -152t104.5 -151.5t79.5 -129v564h67v-693h-57zM417 785q-22 0 -40 7t-35 15q-19 10 -31 13.5t-22 3.5q-21 0 -33 -14t-22 -31l-38 18q5 12 13.5 26 t20 26t27 20t35.5 8q22 0 40 -7t35 -15q19 -10 31 -13.5t22 -3.5q21 0 33 14t22 31l38 -18q-5 -12 -13.5 -26t-20 -26t-27 -20t-35.5 -8z" />
<glyph unicode="&#xd2;" horiz-adv-x="774" d="M712 347q0 -89 -26 -157t-70.5 -113.5t-103.5 -68.5t-125 -23t-125 23t-103.5 68.5t-70.5 113.5t-26 157t26 156.5t70.5 113t103.5 68.5t125 23t125 -23t103.5 -68.5t70.5 -113t26 -156.5zM640 347q0 70 -18 125.5t-51 94.5t-79.5 59.5t-104.5 20.5t-104.5 -20.5 t-79.5 -59.5t-51 -94.5t-18 -125.5t18 -125.5t51 -94.5t79.5 -60t104.5 -21t104.5 21t79.5 60t51 94.5t18 125.5zM295 929l158 -152l-33 -38l-171 139z" />
<glyph unicode="&#xd3;" horiz-adv-x="774" d="M712 347q0 -89 -26 -157t-70.5 -113.5t-103.5 -68.5t-125 -23t-125 23t-103.5 68.5t-70.5 113.5t-26 157t26 156.5t70.5 113t103.5 68.5t125 23t125 -23t103.5 -68.5t70.5 -113t26 -156.5zM640 347q0 70 -18 125.5t-51 94.5t-79.5 59.5t-104.5 20.5t-104.5 -20.5 t-79.5 -59.5t-51 -94.5t-18 -125.5t18 -125.5t51 -94.5t79.5 -60t104.5 -21t104.5 21t79.5 60t51 94.5t18 125.5zM525 878l-171 -139l-33 38l158 152z" />
<glyph unicode="&#xd4;" horiz-adv-x="774" d="M712 347q0 -89 -26 -157t-70.5 -113.5t-103.5 -68.5t-125 -23t-125 23t-103.5 68.5t-70.5 113.5t-26 157t26 156.5t70.5 113t103.5 68.5t125 23t125 -23t103.5 -68.5t70.5 -113t26 -156.5zM640 347q0 70 -18 125.5t-51 94.5t-79.5 59.5t-104.5 20.5t-104.5 -20.5 t-79.5 -59.5t-51 -94.5t-18 -125.5t18 -125.5t51 -94.5t79.5 -60t104.5 -21t104.5 21t79.5 60t51 94.5t18 125.5zM283 740l-28 31l132 147l132 -147l-28 -31l-104 96z" />
<glyph unicode="&#xd5;" horiz-adv-x="774" d="M712 347q0 -89 -26 -157t-70.5 -113.5t-103.5 -68.5t-125 -23t-125 23t-103.5 68.5t-70.5 113.5t-26 157t26 156.5t70.5 113t103.5 68.5t125 23t125 -23t103.5 -68.5t70.5 -113t26 -156.5zM640 347q0 70 -18 125.5t-51 94.5t-79.5 59.5t-104.5 20.5t-104.5 -20.5 t-79.5 -59.5t-51 -94.5t-18 -125.5t18 -125.5t51 -94.5t79.5 -60t104.5 -21t104.5 21t79.5 60t51 94.5t18 125.5zM450 785q-22 0 -40 7t-35 15q-19 10 -31 13.5t-22 3.5q-21 0 -33 -14t-22 -31l-38 18q5 12 13.5 26t20 26t27 20t35.5 8q22 0 40 -7t35 -15q19 -10 31 -13.5 t22 -3.5q21 0 33 14t22 31l38 -18q-5 -12 -13.5 -26t-20 -26t-27 -20t-35.5 -8z" />
<glyph unicode="&#xd6;" horiz-adv-x="774" d="M712 347q0 -89 -26 -157t-70.5 -113.5t-103.5 -68.5t-125 -23t-125 23t-103.5 68.5t-70.5 113.5t-26 157t26 156.5t70.5 113t103.5 68.5t125 23t125 -23t103.5 -68.5t70.5 -113t26 -156.5zM640 347q0 70 -18 125.5t-51 94.5t-79.5 59.5t-104.5 20.5t-104.5 -20.5 t-79.5 -59.5t-51 -94.5t-18 -125.5t18 -125.5t51 -94.5t79.5 -60t104.5 -21t104.5 21t79.5 60t51 94.5t18 125.5zM347 829q0 -22 -13 -35t-33 -13t-33 13t-13 35t13 35t33 13t33 -13t13 -35zM519 829q0 -22 -13 -35t-33 -13t-33 13t-13 35t13 35t33 13t33 -13t13 -35z" />
<glyph unicode="&#xd7;" horiz-adv-x="564" d="M129 486l153 -154l153 154l39 -39l-154 -153l154 -153l-39 -39l-153 154l-153 -154l-39 39l154 153l-154 153z" />
<glyph unicode="&#xd8;" horiz-adv-x="774" d="M712 347q0 -89 -26 -157t-70.5 -113.5t-103.5 -68.5t-125 -23q-54 0 -102.5 15t-90.5 46l-61 -80l-48 36l65 84q-42 45 -65 110.5t-23 150.5q0 89 26 156.5t70.5 113t103.5 68.5t125 23q54 0 103.5 -15.5t91.5 -47.5l64 83l48 -36l-68 -88q40 -45 63 -109t23 -148z M134 347q0 -64 15 -116.5t43 -90.5l351 454q-65 53 -156 53q-58 0 -104.5 -20.5t-79.5 -59.5t-51 -94.5t-18 -125.5zM640 347q0 63 -14.5 114t-41.5 89l-351 -454q62 -50 154 -50q58 0 104.5 21t79.5 60t51 94.5t18 125.5z" />
<glyph unicode="&#xd9;" horiz-adv-x="680" d="M340 -15q-69 0 -117.5 21t-78.5 58t-43.5 86.5t-13.5 106.5v436h68v-427q0 -57 13.5 -98.5t37.5 -68.5t58 -40t76 -13t76 13t58 40t37.5 68.5t13.5 98.5v427h68v-436q0 -57 -13.5 -106.5t-43.5 -86.5t-78.5 -58t-117.5 -21zM248 929l158 -152l-33 -38l-171 139z" />
<glyph unicode="&#xda;" horiz-adv-x="680" d="M340 -15q-69 0 -117.5 21t-78.5 58t-43.5 86.5t-13.5 106.5v436h68v-427q0 -57 13.5 -98.5t37.5 -68.5t58 -40t76 -13t76 13t58 40t37.5 68.5t13.5 98.5v427h68v-436q0 -57 -13.5 -106.5t-43.5 -86.5t-78.5 -58t-117.5 -21zM478 878l-171 -139l-33 38l158 152z" />
<glyph unicode="&#xdb;" horiz-adv-x="680" d="M340 -15q-69 0 -117.5 21t-78.5 58t-43.5 86.5t-13.5 106.5v436h68v-427q0 -57 13.5 -98.5t37.5 -68.5t58 -40t76 -13t76 13t58 40t37.5 68.5t13.5 98.5v427h68v-436q0 -57 -13.5 -106.5t-43.5 -86.5t-78.5 -58t-117.5 -21zM236 740l-28 31l132 147l132 -147l-28 -31 l-104 96z" />
<glyph unicode="&#xdc;" horiz-adv-x="680" d="M340 -15q-69 0 -117.5 21t-78.5 58t-43.5 86.5t-13.5 106.5v436h68v-427q0 -57 13.5 -98.5t37.5 -68.5t58 -40t76 -13t76 13t58 40t37.5 68.5t13.5 98.5v427h68v-436q0 -57 -13.5 -106.5t-43.5 -86.5t-78.5 -58t-117.5 -21zM300 829q0 -22 -13 -35t-33 -13t-33 13t-13 35 t13 35t33 13t33 -13t13 -35zM472 829q0 -22 -13 -35t-33 -13t-33 13t-13 35t13 35t33 13t33 -13t13 -35z" />
<glyph unicode="&#xdd;" horiz-adv-x="569" d="M251 0v285q-71 109 -130.5 210.5t-110.5 197.5h79q42 -88 92.5 -178.5t105.5 -172.5q53 82 104 172.5t94 178.5h74q-53 -95 -112 -197.5t-128 -208.5v-287h-68zM423 878l-171 -139l-33 38l158 152z" />
<glyph unicode="&#xde;" horiz-adv-x="593" d="M158 570q17 2 48.5 4t56.5 2q148 0 220.5 -56.5t72.5 -158.5q0 -59 -21 -100.5t-60 -67t-95.5 -37t-127.5 -11.5h-94v-145h-68v693h68v-123zM266 517q-36 0 -63.5 -2t-44.5 -4v-307h86q55 0 99.5 6.5t76 24t48.5 48.5t17 79q0 46 -18.5 76t-49 47.5t-70 24.5t-81.5 7z " />
<glyph unicode="&#xdf;" horiz-adv-x="596" d="M475 619q0 -26 -8.5 -47.5t-21 -38.5t-26.5 -31l-24 -24q-14 -14 -23.5 -24.5t-15.5 -19.5t-8.5 -18t-2.5 -20q0 -14 6.5 -25t17 -19t23.5 -14.5t26 -12.5q30 -14 56.5 -29t46 -35t30.5 -48t11 -68q0 -75 -51 -116t-142 -41q-49 0 -84 10.5t-45 15.5l14 60q8 -5 38.5 -17 t88.5 -12q54 0 84 27t30 73q0 22 -5.5 38.5t-18.5 30.5t-33 26.5t-48 27.5q-33 17 -54.5 30t-34 26.5t-17.5 28.5t-5 37q0 34 19.5 60t45.5 53q15 16 27.5 28.5t21 25.5t13 27t4.5 32q0 45 -31 73.5t-84 28.5q-77 0 -110.5 -43t-33.5 -115v-560h-65v564q0 48 14 87.5 t40.5 67t63.5 42.5t83 15q98 0 143 -43.5t45 -113.5z" />
<glyph unicode="&#xe0;" horiz-adv-x="509" d="M249 47q38 0 66.5 2.5t48.5 6.5v182q-11 5 -35 10.5t-66 5.5q-24 0 -50 -3.5t-48 -15t-36 -31.5t-14 -53q0 -29 9.5 -49t27 -32t42 -17.5t55.5 -5.5zM243 529q51 0 86.5 -14.5t57.5 -40t32 -60.5t10 -76v-326q-10 -3 -29 -6.5t-44 -7.5t-55.5 -6.5t-62.5 -2.5 q-41 0 -75.5 9t-60 28.5t-40 50t-14.5 74.5q0 42 16 72t45 49.5t69 28.5t87 9q14 0 29.5 -1.5t30 -4t25 -5t14.5 -4.5v32q0 27 -4 52.5t-17.5 46t-38 33t-64.5 12.5q-57 0 -85 -8t-41 -13l-9 57q17 8 52.5 15t85.5 7zM168 773l158 -152l-33 -38l-171 139z" />
<glyph unicode="&#xe1;" horiz-adv-x="509" d="M249 47q38 0 66.5 2.5t48.5 6.5v182q-11 5 -35 10.5t-66 5.5q-24 0 -50 -3.5t-48 -15t-36 -31.5t-14 -53q0 -29 9.5 -49t27 -32t42 -17.5t55.5 -5.5zM243 529q51 0 86.5 -14.5t57.5 -40t32 -60.5t10 -76v-326q-10 -3 -29 -6.5t-44 -7.5t-55.5 -6.5t-62.5 -2.5 q-41 0 -75.5 9t-60 28.5t-40 50t-14.5 74.5q0 42 16 72t45 49.5t69 28.5t87 9q14 0 29.5 -1.5t30 -4t25 -5t14.5 -4.5v32q0 27 -4 52.5t-17.5 46t-38 33t-64.5 12.5q-57 0 -85 -8t-41 -13l-9 57q17 8 52.5 15t85.5 7zM398 722l-171 -139l-33 38l158 152z" />
<glyph unicode="&#xe2;" horiz-adv-x="509" d="M249 47q38 0 66.5 2.5t48.5 6.5v182q-11 5 -35 10.5t-66 5.5q-24 0 -50 -3.5t-48 -15t-36 -31.5t-14 -53q0 -29 9.5 -49t27 -32t42 -17.5t55.5 -5.5zM243 529q51 0 86.5 -14.5t57.5 -40t32 -60.5t10 -76v-326q-10 -3 -29 -6.5t-44 -7.5t-55.5 -6.5t-62.5 -2.5 q-41 0 -75.5 9t-60 28.5t-40 50t-14.5 74.5q0 42 16 72t45 49.5t69 28.5t87 9q14 0 29.5 -1.5t30 -4t25 -5t14.5 -4.5v32q0 27 -4 52.5t-17.5 46t-38 33t-64.5 12.5q-57 0 -85 -8t-41 -13l-9 57q17 8 52.5 15t85.5 7zM156 584l-28 31l132 147l132 -147l-28 -31l-104 96z" />
<glyph unicode="&#xe3;" horiz-adv-x="509" d="M249 47q38 0 66.5 2.5t48.5 6.5v182q-11 5 -35 10.5t-66 5.5q-24 0 -50 -3.5t-48 -15t-36 -31.5t-14 -53q0 -29 9.5 -49t27 -32t42 -17.5t55.5 -5.5zM243 529q51 0 86.5 -14.5t57.5 -40t32 -60.5t10 -76v-326q-10 -3 -29 -6.5t-44 -7.5t-55.5 -6.5t-62.5 -2.5 q-41 0 -75.5 9t-60 28.5t-40 50t-14.5 74.5q0 42 16 72t45 49.5t69 28.5t87 9q14 0 29.5 -1.5t30 -4t25 -5t14.5 -4.5v32q0 27 -4 52.5t-17.5 46t-38 33t-64.5 12.5q-57 0 -85 -8t-41 -13l-9 57q17 8 52.5 15t85.5 7zM323 629q-22 0 -40 7t-35 15q-19 10 -31 13.5t-22 3.5 q-21 0 -33 -14t-22 -31l-38 18q5 12 13.5 26t20 26t27 20t35.5 8q22 0 40 -7t35 -15q19 -10 31 -13.5t22 -3.5q21 0 33 14t22 31l38 -18q-5 -12 -13.5 -26t-20 -26t-27 -20t-35.5 -8z" />
<glyph unicode="&#xe4;" horiz-adv-x="509" d="M249 47q38 0 66.5 2.5t48.5 6.5v182q-11 5 -35 10.5t-66 5.5q-24 0 -50 -3.5t-48 -15t-36 -31.5t-14 -53q0 -29 9.5 -49t27 -32t42 -17.5t55.5 -5.5zM243 529q51 0 86.5 -14.5t57.5 -40t32 -60.5t10 -76v-326q-10 -3 -29 -6.5t-44 -7.5t-55.5 -6.5t-62.5 -2.5 q-41 0 -75.5 9t-60 28.5t-40 50t-14.5 74.5q0 42 16 72t45 49.5t69 28.5t87 9q14 0 29.5 -1.5t30 -4t25 -5t14.5 -4.5v32q0 27 -4 52.5t-17.5 46t-38 33t-64.5 12.5q-57 0 -85 -8t-41 -13l-9 57q17 8 52.5 15t85.5 7zM220 673q0 -22 -13 -35t-33 -13t-33 13t-13 35t13 35 t33 13t33 -13t13 -35zM392 673q0 -22 -13 -35t-33 -13t-33 13t-13 35t13 35t33 13t33 -13t13 -35z" />
<glyph unicode="&#xe5;" horiz-adv-x="509" d="M249 47q38 0 66.5 2.5t48.5 6.5v182q-11 5 -35 10.5t-66 5.5q-24 0 -50 -3.5t-48 -15t-36 -31.5t-14 -53q0 -29 9.5 -49t27 -32t42 -17.5t55.5 -5.5zM243 529q51 0 86.5 -14.5t57.5 -40t32 -60.5t10 -76v-326q-10 -3 -29 -6.5t-44 -7.5t-55.5 -6.5t-62.5 -2.5 q-41 0 -75.5 9t-60 28.5t-40 50t-14.5 74.5q0 42 16 72t45 49.5t69 28.5t87 9q14 0 29.5 -1.5t30 -4t25 -5t14.5 -4.5v32q0 27 -4 52.5t-17.5 46t-38 33t-64.5 12.5q-57 0 -85 -8t-41 -13l-9 57q17 8 52.5 15t85.5 7zM356 676q0 -22 -7.5 -39.5t-20.5 -30t-30.5 -19.5 t-36.5 -7q-39 0 -67.5 26t-28.5 70q0 43 28.5 69t67.5 26q19 0 36.5 -7t30.5 -19.5t20.5 -30t7.5 -38.5zM318 676q0 28 -16.5 43.5t-40.5 15.5t-40.5 -15.5t-16.5 -43.5q0 -29 16.5 -44t40.5 -15t40.5 15t16.5 44z" />
<glyph unicode="&#xe6;" horiz-adv-x="854" d="M728 300q-2 81 -38 126t-102 45q-35 0 -62.5 -14t-48 -37.5t-32 -54.5t-13.5 -65h296zM252 -11q-44 0 -81.5 9t-64.5 28.5t-42.5 50t-15.5 74.5q0 42 16 72t45 49.5t69 28.5t87 9q14 0 29.5 -1.5t30 -4t25 -5t14.5 -4.5v32q0 27 -4 52.5t-17.5 46t-38 33t-64.5 12.5 q-54 0 -84 -7.5t-43 -12.5l-8 56q17 8 53 15t85 7q71 0 111.5 -26.5t57.5 -71.5q33 49 79 73.5t96 24.5q95 0 151.5 -62t56.5 -191q0 -8 -0.5 -16t-1.5 -15h-363q3 -95 47 -146t140 -51q53 0 84 10t45 17l12 -56q-14 -8 -52.5 -19t-90.5 -11q-57 0 -101 14t-77 46 q-11 -9 -27.5 -19.5t-39.5 -19.5t-52 -15t-66 -6zM365 238q-11 5 -35.5 10.5t-66.5 5.5q-24 0 -50 -3.5t-48 -15t-36 -31.5t-14 -53q0 -29 10 -49t28.5 -32t43.5 -17.5t55 -5.5q62 0 98 16.5t50 29.5q-16 26 -25 61.5t-10 83.5z" />
<glyph unicode="&#xe7;" horiz-adv-x="460" d="M294 -36q28 -12 44.5 -29.5t16.5 -46.5q0 -12 -4 -25.5t-15 -24.5t-30 -18t-49 -7q-20 0 -41 3.5t-30 8.5l8 43q11 -5 25 -7t34 -2q41 0 41 29q0 17 -14 26t-44 21q4 12 10.5 27.5t14.5 29.5q-101 12 -153.5 83t-52.5 182q0 61 16.5 111t47.5 86t75 55.5t99 19.5 q42 0 78.5 -7t56.5 -18l-17 -56q-20 10 -45 16t-67 6q-86 0 -130.5 -55.5t-44.5 -157.5q0 -46 10 -84.5t32.5 -66t58 -43t86.5 -15.5q42 0 70.5 9.5t41.5 16.5l14 -56q-17 -10 -54 -19t-78 -10q-3 -7 -6 -13.5t-5 -11.5z" />
<glyph unicode="&#xe8;" horiz-adv-x="548" d="M55 259q0 68 19.5 118.5t51 84.5t72 50.5t83.5 16.5q95 0 151.5 -62t56.5 -191q0 -8 -0.5 -16t-1.5 -15h-363q3 -95 47 -146t140 -51q53 0 84 10t45 17l12 -56q-14 -8 -52.5 -19t-90.5 -11q-68 0 -116 20t-79 56t-45 85.5t-14 108.5zM422 300q-2 81 -38 126t-102 45 q-35 0 -62.5 -14t-48 -37.5t-32 -54.5t-13.5 -65h296zM188 773l158 -152l-33 -38l-171 139z" />
<glyph unicode="&#xe9;" horiz-adv-x="548" d="M55 259q0 68 19.5 118.5t51 84.5t72 50.5t83.5 16.5q95 0 151.5 -62t56.5 -191q0 -8 -0.5 -16t-1.5 -15h-363q3 -95 47 -146t140 -51q53 0 84 10t45 17l12 -56q-14 -8 -52.5 -19t-90.5 -11q-68 0 -116 20t-79 56t-45 85.5t-14 108.5zM422 300q-2 81 -38 126t-102 45 q-35 0 -62.5 -14t-48 -37.5t-32 -54.5t-13.5 -65h296zM418 722l-171 -139l-33 38l158 152z" />
<glyph unicode="&#xea;" horiz-adv-x="548" d="M55 259q0 68 19.5 118.5t51 84.5t72 50.5t83.5 16.5q95 0 151.5 -62t56.5 -191q0 -8 -0.5 -16t-1.5 -15h-363q3 -95 47 -146t140 -51q53 0 84 10t45 17l12 -56q-14 -8 -52.5 -19t-90.5 -11q-68 0 -116 20t-79 56t-45 85.5t-14 108.5zM422 300q-2 81 -38 126t-102 45 q-35 0 -62.5 -14t-48 -37.5t-32 -54.5t-13.5 -65h296zM176 584l-28 31l132 147l132 -147l-28 -31l-104 96z" />
<glyph unicode="&#xeb;" horiz-adv-x="548" d="M55 259q0 68 19.5 118.5t51 84.5t72 50.5t83.5 16.5q95 0 151.5 -62t56.5 -191q0 -8 -0.5 -16t-1.5 -15h-363q3 -95 47 -146t140 -51q53 0 84 10t45 17l12 -56q-14 -8 -52.5 -19t-90.5 -11q-68 0 -116 20t-79 56t-45 85.5t-14 108.5zM422 300q-2 81 -38 126t-102 45 q-35 0 -62.5 -14t-48 -37.5t-32 -54.5t-13.5 -65h296zM240 673q0 -22 -13 -35t-33 -13t-33 13t-13 35t13 35t33 13t33 -13t13 -35zM412 673q0 -22 -13 -35t-33 -13t-33 13t-13 35t13 35t33 13t33 -13t13 -35z" />
<glyph unicode="&#xec;" horiz-adv-x="237" d="M151 0h-65v517h65v-517zM27 773l158 -152l-33 -38l-171 139z" />
<glyph unicode="&#xed;" horiz-adv-x="237" d="M151 0h-65v517h65v-517zM257 722l-171 -139l-33 38l158 152z" />
<glyph unicode="&#xee;" horiz-adv-x="237" d="M151 0h-65v517h65v-517zM15 584l-28 31l132 147l132 -147l-28 -31l-104 96z" />
<glyph unicode="&#xef;" horiz-adv-x="237" d="M151 0h-65v517h65v-517zM79 673q0 -22 -13 -35t-33 -13t-33 13t-13 35t13 35t33 13t33 -13t13 -35zM251 673q0 -22 -13 -35t-33 -13t-33 13t-13 35t13 35t33 13t33 -13t13 -35z" />
<glyph unicode="&#xf0;" horiz-adv-x="578" d="M433 634q41 -63 63 -139t22 -165q0 -60 -9.5 -121t-36 -110t-73.5 -80t-122 -31q-52 0 -93 20.5t-69.5 55.5t-44 81.5t-15.5 99.5q0 58 17 103t47.5 76t73 47t93.5 16q30 0 54.5 -5.5t44 -13.5t34 -17t22.5 -16q-5 42 -22 88t-46 90l-131 -46l-17 45l118 41 q-41 49 -98 84l43 39q67 -41 115 -101l120 42l17 -45zM450 331v17.5t-1 17.5q-35 35 -74 49t-81 14q-45 0 -77.5 -14.5t-53 -39t-30.5 -58t-10 -72.5q0 -40 10 -76t29.5 -63t48 -43t66.5 -16q54 0 87.5 24.5t52.5 64.5t26 91t7 104z" />
<glyph unicode="&#xf1;" horiz-adv-x="569" d="M86 499q29 8 78 18t120 10q59 0 98.5 -17t63 -48.5t33.5 -75.5t10 -97v-289h-65v268q0 55 -7.5 93t-25 62t-46 34.5t-71.5 10.5q-46 0 -79.5 -5t-43.5 -9v-454h-65v499zM350 629q-22 0 -40 7t-35 15q-19 10 -31 13.5t-22 3.5q-21 0 -33 -14t-22 -31l-38 18q5 12 13.5 26 t20 26t27 20t35.5 8q22 0 40 -7t35 -15q19 -10 31 -13.5t22 -3.5q21 0 33 14t22 31l38 -18q-5 -12 -13.5 -26t-20 -26t-27 -20t-35.5 -8z" />
<glyph unicode="&#xf2;" horiz-adv-x="582" d="M527 258q0 -61 -17.5 -111t-49 -85t-74.5 -54.5t-95 -19.5t-95 19.5t-74.5 54.5t-49 85t-17.5 111t17.5 111t49 85.5t74.5 55t95 19.5t95 -19.5t74.5 -55t49 -85.5t17.5 -111zM458 258q0 97 -45 154.5t-122 57.5t-122 -57.5t-45 -154.5t45 -154t122 -57t122 57t45 154z M199 773l158 -152l-33 -38l-171 139z" />
<glyph unicode="&#xf3;" horiz-adv-x="582" d="M527 258q0 -61 -17.5 -111t-49 -85t-74.5 -54.5t-95 -19.5t-95 19.5t-74.5 54.5t-49 85t-17.5 111t17.5 111t49 85.5t74.5 55t95 19.5t95 -19.5t74.5 -55t49 -85.5t17.5 -111zM458 258q0 97 -45 154.5t-122 57.5t-122 -57.5t-45 -154.5t45 -154t122 -57t122 57t45 154z M429 722l-171 -139l-33 38l158 152z" />
<glyph unicode="&#xf4;" horiz-adv-x="582" d="M527 258q0 -61 -17.5 -111t-49 -85t-74.5 -54.5t-95 -19.5t-95 19.5t-74.5 54.5t-49 85t-17.5 111t17.5 111t49 85.5t74.5 55t95 19.5t95 -19.5t74.5 -55t49 -85.5t17.5 -111zM458 258q0 97 -45 154.5t-122 57.5t-122 -57.5t-45 -154.5t45 -154t122 -57t122 57t45 154z M187 584l-28 31l132 147l132 -147l-28 -31l-104 96z" />
<glyph unicode="&#xf5;" horiz-adv-x="582" d="M527 258q0 -61 -17.5 -111t-49 -85t-74.5 -54.5t-95 -19.5t-95 19.5t-74.5 54.5t-49 85t-17.5 111t17.5 111t49 85.5t74.5 55t95 19.5t95 -19.5t74.5 -55t49 -85.5t17.5 -111zM458 258q0 97 -45 154.5t-122 57.5t-122 -57.5t-45 -154.5t45 -154t122 -57t122 57t45 154z M354 629q-22 0 -40 7t-35 15q-19 10 -31 13.5t-22 3.5q-21 0 -33 -14t-22 -31l-38 18q5 12 13.5 26t20 26t27 20t35.5 8q22 0 40 -7t35 -15q19 -10 31 -13.5t22 -3.5q21 0 33 14t22 31l38 -18q-5 -12 -13.5 -26t-20 -26t-27 -20t-35.5 -8z" />
<glyph unicode="&#xf6;" horiz-adv-x="582" d="M527 258q0 -61 -17.5 -111t-49 -85t-74.5 -54.5t-95 -19.5t-95 19.5t-74.5 54.5t-49 85t-17.5 111t17.5 111t49 85.5t74.5 55t95 19.5t95 -19.5t74.5 -55t49 -85.5t17.5 -111zM458 258q0 97 -45 154.5t-122 57.5t-122 -57.5t-45 -154.5t45 -154t122 -57t122 57t45 154z M251 673q0 -22 -13 -35t-33 -13t-33 13t-13 35t13 35t33 13t33 -13t13 -35zM423 673q0 -22 -13 -35t-33 -13t-33 13t-13 35t13 35t33 13t33 -13t13 -35z" />
<glyph unicode="&#xf7;" horiz-adv-x="564" d="M281 51q-20 0 -33.5 14t-13.5 35q0 22 13.5 36t33.5 14q21 0 34.5 -14t13.5 -36q0 -21 -13.5 -35t-34.5 -14zM281 427q-20 0 -33.5 14t-13.5 36q0 21 13.5 35t33.5 14q21 0 34.5 -14t13.5 -35q0 -22 -13.5 -36t-34.5 -14zM56 317h452v-56h-452v56z" />
<glyph unicode="&#xf8;" horiz-adv-x="582" d="M527 258q0 -61 -17.5 -111t-49 -85t-74.5 -54.5t-95 -19.5q-80 0 -139 45l-51 -67l-43 32l56 72q-29 35 -44 82.5t-15 105.5q0 61 17.5 111t49 85.5t74.5 55t95 19.5q81 0 141 -48l51 67l42 -31l-56 -73q28 -35 43 -82t15 -104zM124 258q0 -80 31 -134l239 308 q-20 18 -46 28t-57 10q-77 0 -122 -57.5t-45 -154.5zM458 258q0 78 -31 132l-237 -308q41 -35 101 -35q77 0 122 57t45 154z" />
<glyph unicode="&#xf9;" horiz-adv-x="569" d="M483 18q-29 -8 -78 -18t-120 -10q-58 0 -97 17t-63 48t-34.5 75t-10.5 97v290h65v-269q0 -55 8 -93t26 -61.5t46.5 -34t69.5 -10.5q46 0 80 5t43 9v454h65v-499zM189 773l158 -152l-33 -38l-171 139z" />
<glyph unicode="&#xfa;" horiz-adv-x="569" d="M483 18q-29 -8 -78 -18t-120 -10q-58 0 -97 17t-63 48t-34.5 75t-10.5 97v290h65v-269q0 -55 8 -93t26 -61.5t46.5 -34t69.5 -10.5q46 0 80 5t43 9v454h65v-499zM419 722l-171 -139l-33 38l158 152z" />
<glyph unicode="&#xfb;" horiz-adv-x="569" d="M483 18q-29 -8 -78 -18t-120 -10q-58 0 -97 17t-63 48t-34.5 75t-10.5 97v290h65v-269q0 -55 8 -93t26 -61.5t46.5 -34t69.5 -10.5q46 0 80 5t43 9v454h65v-499zM177 584l-28 31l132 147l132 -147l-28 -31l-104 96z" />
<glyph unicode="&#xfc;" horiz-adv-x="569" d="M483 18q-29 -8 -78 -18t-120 -10q-58 0 -97 17t-63 48t-34.5 75t-10.5 97v290h65v-269q0 -55 8 -93t26 -61.5t46.5 -34t69.5 -10.5q46 0 80 5t43 9v454h65v-499zM241 673q0 -22 -13 -35t-33 -13t-33 13t-13 35t13 35t33 13t33 -13t13 -35zM413 673q0 -22 -13 -35t-33 -13 t-33 13t-13 35t13 35t33 13t33 -13t13 -35z" />
<glyph unicode="&#xfd;" horiz-adv-x="474" d="M227 -11q-33 61 -63.5 127t-57 133.5t-48.5 135t-38 132.5h69q11 -48 28 -103.5t38.5 -114.5t47.5 -121t56 -122q22 62 39 117t31.5 109.5t28 111.5t28.5 123h65q-32 -145 -73 -282t-89 -251q-19 -45 -39 -77.5t-44.5 -53.5t-57 -31t-76.5 -10q-25 0 -45.5 6t-25.5 9 l13 54q4 -3 22.5 -8.5t38.5 -5.5q28 0 50.5 6t40.5 20.5t32.5 37.5t28.5 58zM386 722l-171 -139l-33 38l158 152z" />
<glyph unicode="&#xfe;" horiz-adv-x="583" d="M151 776v-274q64 25 127 25q56 0 102 -19t79 -54t51 -85t18 -112q0 -59 -15.5 -108.5t-45.5 -85t-73.5 -55.5t-99.5 -20q-51 0 -88.5 14.5t-54.5 27.5v-215h-65v949zM151 93q9 -7 22.5 -15t31.5 -15t39 -11.5t44 -4.5q48 0 80.5 16.5t52.5 45t29 67t9 81.5 q0 101 -51.5 156t-135.5 55q-42 0 -76 -9t-45 -14v-352z" />
<glyph unicode="&#xff;" horiz-adv-x="474" d="M227 -11q-33 61 -63.5 127t-57 133.5t-48.5 135t-38 132.5h69q11 -48 28 -103.5t38.5 -114.5t47.5 -121t56 -122q22 62 39 117t31.5 109.5t28 111.5t28.5 123h65q-32 -145 -73 -282t-89 -251q-19 -45 -39 -77.5t-44.5 -53.5t-57 -31t-76.5 -10q-25 0 -45.5 6t-25.5 9 l13 54q4 -3 22.5 -8.5t38.5 -5.5q28 0 50.5 6t40.5 20.5t32.5 37.5t28.5 58zM208 673q0 -22 -13 -35t-33 -13t-33 13t-13 35t13 35t33 13t33 -13t13 -35zM380 673q0 -22 -13 -35t-33 -13t-33 13t-13 35t13 35t33 13t33 -13t13 -35z" />
<glyph unicode="&#x100;" horiz-adv-x="641" d="M556 0q-19 51 -36 98t-33 92h-337q-17 -45 -34 -92t-35 -98h-71q40 108 75 201.5t68.5 177t66.5 160.5t70 154h60q37 -77 70 -154t66.5 -160.5t68.5 -177t76 -201.5h-75zM318 615q-38 -86 -73.5 -175t-73.5 -192h295q-38 103 -74 192t-74 175zM188 805v55h265v-55h-265z " />
<glyph unicode="&#x101;" horiz-adv-x="509" d="M249 47q38 0 66.5 2.5t48.5 6.5v182q-11 5 -35 10.5t-66 5.5q-24 0 -50 -3.5t-48 -15t-36 -31.5t-14 -53q0 -29 9.5 -49t27 -32t42 -17.5t55.5 -5.5zM243 529q51 0 86.5 -14.5t57.5 -40t32 -60.5t10 -76v-326q-10 -3 -29 -6.5t-44 -7.5t-55.5 -6.5t-62.5 -2.5 q-41 0 -75.5 9t-60 28.5t-40 50t-14.5 74.5q0 42 16 72t45 49.5t69 28.5t87 9q14 0 29.5 -1.5t30 -4t25 -5t14.5 -4.5v32q0 27 -4 52.5t-17.5 46t-38 33t-64.5 12.5q-57 0 -85 -8t-41 -13l-9 57q17 8 52.5 15t85.5 7zM128 649v55h265v-55h-265z" />
<glyph unicode="&#x102;" horiz-adv-x="641" d="M556 0q-19 51 -36 98t-33 92h-337q-17 -45 -34 -92t-35 -98h-71q40 108 75 201.5t68.5 177t66.5 160.5t70 154h60q37 -77 70 -154t66.5 -160.5t68.5 -177t76 -201.5h-75zM318 615q-38 -86 -73.5 -175t-73.5 -192h295q-38 103 -74 192t-74 175zM320 769q-24 0 -46.5 8 t-40 24t-27 41t-8.5 60h43q0 -7 2.5 -20t10.5 -25.5t23.5 -22t42.5 -9.5t42.5 9.5t23.5 22t10.5 25.5t2.5 20h43q1 -35 -8.5 -60t-27 -41t-40 -24t-46.5 -8z" />
<glyph unicode="&#x103;" horiz-adv-x="509" d="M249 47q38 0 66.5 2.5t48.5 6.5v182q-11 5 -35 10.5t-66 5.5q-24 0 -50 -3.5t-48 -15t-36 -31.5t-14 -53q0 -29 9.5 -49t27 -32t42 -17.5t55.5 -5.5zM243 529q51 0 86.5 -14.5t57.5 -40t32 -60.5t10 -76v-326q-10 -3 -29 -6.5t-44 -7.5t-55.5 -6.5t-62.5 -2.5 q-41 0 -75.5 9t-60 28.5t-40 50t-14.5 74.5q0 42 16 72t45 49.5t69 28.5t87 9q14 0 29.5 -1.5t30 -4t25 -5t14.5 -4.5v32q0 27 -4 52.5t-17.5 46t-38 33t-64.5 12.5q-57 0 -85 -8t-41 -13l-9 57q17 8 52.5 15t85.5 7zM260 613q-24 0 -46.5 8t-40 24t-27 41t-8.5 60h43 q0 -7 2.5 -20t10.5 -25.5t23.5 -22t42.5 -9.5t42.5 9.5t23.5 22t10.5 25.5t2.5 20h43q1 -35 -8.5 -60t-27 -41t-40 -24t-46.5 -8z" />
<glyph unicode="&#x104;" horiz-adv-x="641" d="M539 -15q5 5 9 8.5t8 6.5q-19 51 -36 98t-33 92h-337q-17 -45 -34 -92t-35 -98h-71q40 108 75 201.5t68.5 177t66.5 160.5t70 154h60q37 -77 70 -154t66 -160t68 -176t76 -201q-11 -8 -22 -17.5t-23 -22.5q-16 -17 -25.5 -31.5t-9.5 -31.5q0 -18 12 -26t30 -8 q9 0 19.5 1.5t18.5 4.5l5 -48q-8 -3 -23.5 -6t-30.5 -3q-54 0 -76 19.5t-22 50.5t17 55.5t39 45.5zM318 615q-38 -86 -73.5 -175t-73.5 -192h295q-38 103 -74 192t-74 175z" />
<glyph unicode="&#x105;" horiz-adv-x="509" d="M243 529q51 0 86.5 -14.5t57.5 -40t32 -60.5t10 -76v-328q-24 -19 -49 -46q-16 -17 -25.5 -32.5t-9.5 -32.5q0 -18 12 -26t30 -8q9 0 19.5 1.5t18.5 4.5l5 -48q-8 -3 -23.5 -6t-30.5 -3q-54 0 -76 19.5t-22 50.5q0 19 6.5 35t17 30t24 25.5t26.5 21.5q-25 -3 -54 -5 t-60 -2q-41 0 -75.5 9t-60 28.5t-40 50t-14.5 74.5q0 42 16 72t45 49.5t69 28.5t87 9q14 0 29.5 -1.5t30 -4t25 -5t14.5 -4.5v32q0 27 -4 52.5t-17.5 46t-38 33t-64.5 12.5q-54 0 -84 -7.5t-43 -12.5l-8 56q17 8 53 15t85 7zM249 47q38 0 66.5 2.5t48.5 6.5v182 q-11 5 -35 10.5t-66 5.5q-24 0 -50 -3.5t-48 -15t-36 -31.5t-14 -53q0 -29 9.5 -49t27 -32t42 -17.5t55.5 -5.5z" />
<glyph unicode="&#x106;" horiz-adv-x="609" d="M378 -15q-67 0 -124.5 24t-100 70t-67 113.5t-24.5 154.5t26.5 154.5t70.5 113.5t102 69.5t121 23.5q39 0 71 -5t56 -12.5t41 -15t26 -13.5l-22 -59q-25 15 -63.5 29.5t-95.5 14.5q-65 0 -113.5 -22t-81.5 -62t-49.5 -95t-16.5 -122q0 -69 16.5 -124.5t48.5 -94.5 t78.5 -60t106.5 -21q66 0 110.5 12.5t67.5 25.5l19 -58q-7 -5 -24 -11.5t-43 -13.5t-60 -11.5t-76 -4.5zM500 878l-171 -139l-33 38l158 152z" />
<glyph unicode="&#x107;" horiz-adv-x="460" d="M300 -11q-60 0 -106 19t-76.5 54.5t-46.5 85t-16 109.5q0 61 16.5 111t47.5 86t75 55.5t99 19.5q42 0 78.5 -7t56.5 -18l-17 -56q-20 10 -45 16t-67 6q-86 0 -130.5 -55.5t-44.5 -157.5q0 -46 10 -84.5t32.5 -66t58 -43t86.5 -15.5q42 0 70.5 9.5t41.5 16.5l14 -56 q-18 -10 -56.5 -19.5t-80.5 -9.5zM418 722l-171 -139l-33 38l158 152z" />
<glyph unicode="&#x108;" horiz-adv-x="609" d="M378 -15q-67 0 -124.5 24t-100 70t-67 113.5t-24.5 154.5t26.5 154.5t70.5 113.5t102 69.5t121 23.5q39 0 71 -5t56 -12.5t41 -15t26 -13.5l-22 -59q-25 15 -63.5 29.5t-95.5 14.5q-65 0 -113.5 -22t-81.5 -62t-49.5 -95t-16.5 -122q0 -69 16.5 -124.5t48.5 -94.5 t78.5 -60t106.5 -21q66 0 110.5 12.5t67.5 25.5l19 -58q-7 -5 -24 -11.5t-43 -13.5t-60 -11.5t-76 -4.5zM258 740l-28 31l132 147l132 -147l-28 -31l-104 96z" />
<glyph unicode="&#x109;" horiz-adv-x="460" d="M300 -11q-60 0 -106 19t-76.5 54.5t-46.5 85t-16 109.5q0 61 16.5 111t47.5 86t75 55.5t99 19.5q42 0 78.5 -7t56.5 -18l-17 -56q-20 10 -45 16t-67 6q-86 0 -130.5 -55.5t-44.5 -157.5q0 -46 10 -84.5t32.5 -66t58 -43t86.5 -15.5q42 0 70.5 9.5t41.5 16.5l14 -56 q-18 -10 -56.5 -19.5t-80.5 -9.5zM176 584l-28 31l132 147l132 -147l-28 -31l-104 96z" />
<glyph unicode="&#x10a;" horiz-adv-x="609" d="M378 -15q-67 0 -124.5 24t-100 70t-67 113.5t-24.5 154.5t26.5 154.5t70.5 113.5t102 69.5t121 23.5q39 0 71 -5t56 -12.5t41 -15t26 -13.5l-22 -59q-25 15 -63.5 29.5t-95.5 14.5q-65 0 -113.5 -22t-81.5 -62t-49.5 -95t-16.5 -122q0 -69 16.5 -124.5t48.5 -94.5 t78.5 -60t106.5 -21q66 0 110.5 12.5t67.5 25.5l19 -58q-7 -5 -24 -11.5t-43 -13.5t-60 -11.5t-76 -4.5zM362 779q-20 0 -34 13.5t-14 36.5t14 36.5t34 13.5t34 -13.5t14 -36.5t-14 -36.5t-34 -13.5z" />
<glyph unicode="&#x10b;" horiz-adv-x="460" d="M300 -11q-60 0 -106 19t-76.5 54.5t-46.5 85t-16 109.5q0 61 16.5 111t47.5 86t75 55.5t99 19.5q42 0 78.5 -7t56.5 -18l-17 -56q-20 10 -45 16t-67 6q-86 0 -130.5 -55.5t-44.5 -157.5q0 -46 10 -84.5t32.5 -66t58 -43t86.5 -15.5q42 0 70.5 9.5t41.5 16.5l14 -56 q-18 -10 -56.5 -19.5t-80.5 -9.5zM280 623q-20 0 -34 13.5t-14 36.5t14 36.5t34 13.5t34 -13.5t14 -36.5t-14 -36.5t-34 -13.5z" />
<glyph unicode="&#x10c;" horiz-adv-x="609" d="M378 -15q-67 0 -124.5 24t-100 70t-67 113.5t-24.5 154.5t26.5 154.5t70.5 113.5t102 69.5t121 23.5q39 0 71 -5t56 -12.5t41 -15t26 -13.5l-22 -59q-25 15 -63.5 29.5t-95.5 14.5q-65 0 -113.5 -22t-81.5 -62t-49.5 -95t-16.5 -122q0 -69 16.5 -124.5t48.5 -94.5 t78.5 -60t106.5 -21q66 0 110.5 12.5t67.5 25.5l19 -58q-7 -5 -24 -11.5t-43 -13.5t-60 -11.5t-76 -4.5zM362 825l104 96l28 -31l-132 -147l-132 147l28 31z" />
<glyph unicode="&#x10d;" horiz-adv-x="460" d="M300 -11q-60 0 -106 19t-76.5 54.5t-46.5 85t-16 109.5q0 61 16.5 111t47.5 86t75 55.5t99 19.5q42 0 78.5 -7t56.5 -18l-17 -56q-20 10 -45 16t-67 6q-86 0 -130.5 -55.5t-44.5 -157.5q0 -46 10 -84.5t32.5 -66t58 -43t86.5 -15.5q42 0 70.5 9.5t41.5 16.5l14 -56 q-18 -10 -56.5 -19.5t-80.5 -9.5zM280 669l104 96l28 -31l-132 -147l-132 147l28 31z" />
<glyph unicode="&#x10e;" horiz-adv-x="702" d="M640 347q0 -89 -28 -155t-78.5 -110t-120.5 -66t-154 -22q-42 0 -88 4.5t-81 13.5v668q35 10 81 14.5t88 4.5q84 0 154 -22t120.5 -66t78.5 -110t28 -154zM158 60q6 -1 30.5 -4t78.5 -3q75 0 131 20.5t94 58.5t57 92.5t19 122.5t-19 122t-57 92t-94 58.5t-131 20.5 q-54 0 -78.5 -3t-30.5 -4v-573zM349 825l104 96l28 -31l-132 -147l-132 147l28 31z" />
<glyph unicode="&#x10f;" horiz-adv-x="615" d="M497 16q-29 -10 -74 -19t-114 -9q-57 0 -103.5 18.5t-80 53.5t-52 85t-18.5 113q0 59 15.5 108.5t45.5 85.5t73.5 56t99.5 20q51 0 88.5 -14.5t54.5 -27.5v278l65 12v-760zM432 423q-9 7 -22.5 15t-31.5 15t-39 11.5t-44 4.5q-48 0 -80.5 -17t-52.5 -45.5t-29 -67 t-9 -81.5q0 -102 51 -156.5t135 -54.5q48 0 77.5 4.5t44.5 9.5v362zM647 776l-24 -217h-47v217h71z" />
<glyph unicode="&#x110;" horiz-adv-x="716" d="M654 347q0 -89 -28 -155t-78.5 -110t-120.5 -66t-154 -22q-42 0 -88 4.5t-81 13.5v323h-80v55h80v290q35 10 81 14.5t88 4.5q84 0 154 -22t120.5 -66t78.5 -110t28 -154zM172 60q6 -1 30.5 -4t78.5 -3q75 0 131 20.5t94 58.5t57 92.5t19 122.5t-19 122t-57 92t-94 58.5 t-131 20.5q-54 0 -78.5 -3t-30.5 -4v-243h132v-55h-132v-275z" />
<glyph unicode="&#x111;" horiz-adv-x="583" d="M497 680h80v-52h-80v-612q-29 -10 -74 -19t-114 -9q-57 0 -103.5 18.5t-80 53.5t-52 85t-18.5 113q0 59 15.5 108.5t45.5 85.5t73.5 56t99.5 20q51 0 88.5 -14.5t54.5 -27.5v142h-182v52h182v84l65 12v-96zM432 423q-9 7 -22.5 15t-31.5 15t-39 11.5t-44 4.5 q-48 0 -80.5 -17t-52.5 -45.5t-29 -67t-9 -81.5q0 -102 51 -156.5t135 -54.5q48 0 77.5 4.5t44.5 9.5v362z" />
<glyph unicode="&#x112;" horiz-adv-x="555" d="M90 0v693h400v-59h-332v-241h296v-58h-296v-276h358v-59h-426zM158 805v55h265v-55h-265z" />
<glyph unicode="&#x113;" horiz-adv-x="548" d="M55 259q0 68 19.5 118.5t51 84.5t72 50.5t83.5 16.5q95 0 151.5 -62t56.5 -191q0 -8 -0.5 -16t-1.5 -15h-363q3 -95 47 -146t140 -51q53 0 84 10t45 17l12 -56q-14 -8 -52.5 -19t-90.5 -11q-68 0 -116 20t-79 56t-45 85.5t-14 108.5zM422 300q-2 81 -38 126t-102 45 q-35 0 -62.5 -14t-48 -37.5t-32 -54.5t-13.5 -65h296zM148 649v55h265v-55h-265z" />
<glyph unicode="&#x114;" horiz-adv-x="555" d="M90 0v693h400v-59h-332v-241h296v-58h-296v-276h358v-59h-426zM290 769q-24 0 -46.5 8t-40 24t-27 41t-8.5 60h43q0 -7 2.5 -20t10.5 -25.5t23.5 -22t42.5 -9.5t42.5 9.5t23.5 22t10.5 25.5t2.5 20h43q1 -35 -8.5 -60t-27 -41t-40 -24t-46.5 -8z" />
<glyph unicode="&#x115;" horiz-adv-x="548" d="M55 259q0 68 19.5 118.5t51 84.5t72 50.5t83.5 16.5q95 0 151.5 -62t56.5 -191q0 -8 -0.5 -16t-1.5 -15h-363q3 -95 47 -146t140 -51q53 0 84 10t45 17l12 -56q-14 -8 -52.5 -19t-90.5 -11q-68 0 -116 20t-79 56t-45 85.5t-14 108.5zM422 300q-2 81 -38 126t-102 45 q-35 0 -62.5 -14t-48 -37.5t-32 -54.5t-13.5 -65h296zM280 613q-24 0 -46.5 8t-40 24t-27 41t-8.5 60h43q0 -7 2.5 -20t10.5 -25.5t23.5 -22t42.5 -9.5t42.5 9.5t23.5 22t10.5 25.5t2.5 20h43q1 -35 -8.5 -60t-27 -41t-40 -24t-46.5 -8z" />
<glyph unicode="&#x116;" horiz-adv-x="555" d="M90 0v693h400v-59h-332v-241h296v-58h-296v-276h358v-59h-426zM290 779q-20 0 -34 13.5t-14 36.5t14 36.5t34 13.5t34 -13.5t14 -36.5t-14 -36.5t-34 -13.5z" />
<glyph unicode="&#x117;" horiz-adv-x="548" d="M55 259q0 68 19.5 118.5t51 84.5t72 50.5t83.5 16.5q95 0 151.5 -62t56.5 -191q0 -8 -0.5 -16t-1.5 -15h-363q3 -95 47 -146t140 -51q53 0 84 10t45 17l12 -56q-14 -8 -52.5 -19t-90.5 -11q-68 0 -116 20t-79 56t-45 85.5t-14 108.5zM422 300q-2 81 -38 126t-102 45 q-35 0 -62.5 -14t-48 -37.5t-32 -54.5t-13.5 -65h296zM280 623q-20 0 -34 13.5t-14 36.5t14 36.5t34 13.5t34 -13.5t14 -36.5t-14 -36.5t-34 -13.5z" />
<glyph unicode="&#x118;" horiz-adv-x="555" d="M90 0v693h400v-59h-332v-241h296v-58h-296v-276h358v-57q-11 -8 -22 -17.5t-23 -22.5q-16 -17 -25.5 -31.5t-9.5 -31.5q0 -18 12 -26t30 -8q9 0 19.5 1.5t18.5 4.5l5 -48q-8 -3 -23.5 -6t-30.5 -3q-54 0 -76 19.5t-22 50.5t16.5 55t38.5 44q5 5 10.5 9t10.5 8h-355z" />
<glyph unicode="&#x119;" horiz-adv-x="548" d="M55 259q0 68 19.5 118.5t51 84.5t72 50.5t83.5 16.5q95 0 151.5 -62t56.5 -191q0 -8 -0.5 -16t-1.5 -15h-363q3 -95 47 -146t140 -51q53 0 84 10t45 17l12 -56q-39 -30 -66 -57q-16 -17 -25.5 -32t-9.5 -31q0 -18 12 -26t30 -8q9 0 19.5 1.5t18.5 4.5l5 -48 q-8 -3 -23.5 -6t-30.5 -3q-54 0 -76 19.5t-22 50.5q0 18 7 34t17.5 30.5t23.5 26t26 20.5q-25 -5 -49 -5q-68 0 -116 20t-79 55.5t-45 85t-14 108.5zM422 300q-2 81 -38 126t-102 45q-35 0 -62.5 -14t-48 -37.5t-32 -54.5t-13.5 -65h296z" />
<glyph unicode="&#x11a;" horiz-adv-x="555" d="M90 0v693h400v-59h-332v-241h296v-58h-296v-276h358v-59h-426zM290 825l104 96l28 -31l-132 -147l-132 147l28 31z" />
<glyph unicode="&#x11b;" horiz-adv-x="548" d="M55 259q0 68 19.5 118.5t51 84.5t72 50.5t83.5 16.5q95 0 151.5 -62t56.5 -191q0 -8 -0.5 -16t-1.5 -15h-363q3 -95 47 -146t140 -51q53 0 84 10t45 17l12 -56q-14 -8 -52.5 -19t-90.5 -11q-68 0 -116 20t-79 56t-45 85.5t-14 108.5zM422 300q-2 81 -38 126t-102 45 q-35 0 -62.5 -14t-48 -37.5t-32 -54.5t-13.5 -65h296zM280 669l104 96l28 -31l-132 -147l-132 147l28 31z" />
<glyph unicode="&#x11c;" horiz-adv-x="658" d="M522 328h68v-309q-19 -8 -74.5 -20.5t-136.5 -12.5q-68 0 -126 24t-100.5 69.5t-66.5 113t-24 154.5t26 154.5t70.5 113t103.5 69.5t126 24q77 0 127 -16.5t73 -31.5l-23 -58q-28 20 -76 32.5t-104 12.5q-52 0 -98 -19t-80 -57t-53.5 -94t-19.5 -130q0 -69 16 -124.5 t48.5 -95t80.5 -60.5t111 -21q51 0 85.5 5.5t46.5 10.5v266zM263 740l-28 31l132 147l132 -147l-28 -31l-104 96z" />
<glyph unicode="&#x11d;" horiz-adv-x="573" d="M423 60q-6 -5 -18 -11.5t-29.5 -13.5t-40 -11.5t-50.5 -4.5q-45 0 -87 14t-73.5 44t-50.5 77.5t-19 115.5q0 55 17 102t48.5 81.5t77 54t102.5 19.5q72 0 115.5 -9.5t71.5 -18.5v-472q0 -116 -60 -165.5t-181 -49.5q-50 0 -90.5 7.5t-69.5 17.5l13 59q24 -11 65.5 -19 t83.5 -8q92 0 133.5 35.5t41.5 121.5v34zM422 454q-17 5 -44 9.5t-77 4.5q-42 0 -74.5 -14.5t-55.5 -41t-35 -63t-12 -80.5q0 -51 14 -87.5t36.5 -59.5t51.5 -33.5t59 -10.5q44 0 80.5 13t56.5 30v333zM201 584l-28 31l132 147l132 -147l-28 -31l-104 96z" />
<glyph unicode="&#x11e;" horiz-adv-x="658" d="M522 328h68v-309q-19 -8 -74.5 -20.5t-136.5 -12.5q-68 0 -126 24t-100.5 69.5t-66.5 113t-24 154.5t26 154.5t70.5 113t103.5 69.5t126 24q77 0 127 -16.5t73 -31.5l-23 -58q-28 20 -76 32.5t-104 12.5q-52 0 -98 -19t-80 -57t-53.5 -94t-19.5 -130q0 -69 16 -124.5 t48.5 -95t80.5 -60.5t111 -21q51 0 85.5 5.5t46.5 10.5v266zM367 769q-24 0 -46.5 8t-40 24t-27 41t-8.5 60h43q0 -7 2.5 -20t10.5 -25.5t23.5 -22t42.5 -9.5t42.5 9.5t23.5 22t10.5 25.5t2.5 20h43q1 -35 -8.5 -60t-27 -41t-40 -24t-46.5 -8z" />
<glyph unicode="&#x11f;" horiz-adv-x="573" d="M423 60q-6 -5 -18 -11.5t-29.5 -13.5t-40 -11.5t-50.5 -4.5q-45 0 -87 14t-73.5 44t-50.5 77.5t-19 115.5q0 55 17 102t48.5 81.5t77 54t102.5 19.5q72 0 115.5 -9.5t71.5 -18.5v-472q0 -116 -60 -165.5t-181 -49.5q-50 0 -90.5 7.5t-69.5 17.5l13 59q24 -11 65.5 -19 t83.5 -8q92 0 133.5 35.5t41.5 121.5v34zM422 454q-17 5 -44 9.5t-77 4.5q-42 0 -74.5 -14.5t-55.5 -41t-35 -63t-12 -80.5q0 -51 14 -87.5t36.5 -59.5t51.5 -33.5t59 -10.5q44 0 80.5 13t56.5 30v333zM305 613q-24 0 -46.5 8t-40 24t-27 41t-8.5 60h43q0 -7 2.5 -20 t10.5 -25.5t23.5 -22t42.5 -9.5t42.5 9.5t23.5 22t10.5 25.5t2.5 20h43q1 -35 -8.5 -60t-27 -41t-40 -24t-46.5 -8z" />
<glyph unicode="&#x120;" horiz-adv-x="658" d="M522 328h68v-309q-19 -8 -74.5 -20.5t-136.5 -12.5q-68 0 -126 24t-100.5 69.5t-66.5 113t-24 154.5t26 154.5t70.5 113t103.5 69.5t126 24q77 0 127 -16.5t73 -31.5l-23 -58q-28 20 -76 32.5t-104 12.5q-52 0 -98 -19t-80 -57t-53.5 -94t-19.5 -130q0 -69 16 -124.5 t48.5 -95t80.5 -60.5t111 -21q51 0 85.5 5.5t46.5 10.5v266zM367 779q-20 0 -34 13.5t-14 36.5t14 36.5t34 13.5t34 -13.5t14 -36.5t-14 -36.5t-34 -13.5z" />
<glyph unicode="&#x121;" horiz-adv-x="573" d="M423 60q-6 -5 -18 -11.5t-29.5 -13.5t-40 -11.5t-50.5 -4.5q-45 0 -87 14t-73.5 44t-50.5 77.5t-19 115.5q0 55 17 102t48.5 81.5t77 54t102.5 19.5q72 0 115.5 -9.5t71.5 -18.5v-472q0 -116 -60 -165.5t-181 -49.5q-50 0 -90.5 7.5t-69.5 17.5l13 59q24 -11 65.5 -19 t83.5 -8q92 0 133.5 35.5t41.5 121.5v34zM422 454q-17 5 -44 9.5t-77 4.5q-42 0 -74.5 -14.5t-55.5 -41t-35 -63t-12 -80.5q0 -51 14 -87.5t36.5 -59.5t51.5 -33.5t59 -10.5q44 0 80.5 13t56.5 30v333zM305 623q-20 0 -34 13.5t-14 36.5t14 36.5t34 13.5t34 -13.5t14 -36.5 t-14 -36.5t-34 -13.5z" />
<glyph unicode="&#x122;" horiz-adv-x="658" d="M522 328h68v-309q-19 -8 -74.5 -20.5t-136.5 -12.5q-68 0 -126 24t-100.5 69.5t-66.5 113t-24 154.5t26 154.5t70.5 113t103.5 69.5t126 24q77 0 127 -16.5t73 -31.5l-23 -58q-28 20 -76 32.5t-104 12.5q-52 0 -98 -19t-80 -57t-53.5 -94t-19.5 -130q0 -69 16 -124.5 t48.5 -95t80.5 -60.5t111 -21q51 0 85.5 5.5t46.5 10.5v266zM336 -68v13h64q1 -4 1 -9v-8q0 -54 -30 -84t-78 -30q-8 0 -17 1t-14 3v43q43 0 58.5 17t15.5 54z" />
<glyph unicode="&#x123;" horiz-adv-x="573" d="M423 60q-6 -5 -18 -11.5t-29.5 -13.5t-40 -11.5t-50.5 -4.5q-45 0 -87 14t-73.5 44t-50.5 77.5t-19 115.5q0 55 17 102t48.5 81.5t77 54t102.5 19.5q72 0 115.5 -9.5t71.5 -18.5v-472q0 -116 -60 -165.5t-181 -49.5q-50 0 -90.5 7.5t-69.5 17.5l13 59q24 -11 65.5 -19 t83.5 -8q92 0 133.5 35.5t41.5 121.5v34zM422 454q-17 5 -44 9.5t-77 4.5q-42 0 -74.5 -14.5t-55.5 -41t-35 -63t-12 -80.5q0 -51 14 -87.5t36.5 -59.5t51.5 -33.5t59 -10.5q44 0 80.5 13t56.5 30v333zM265 633q0 36 10 62t25 43t32.5 27t32.5 14l20 -38q-11 -7 -20.5 -15 t-17.5 -20.5t-12.5 -31.5t-4.5 -48v-12h-64q-1 4 -1 10v9z" />
<glyph unicode="&#x124;" horiz-adv-x="692" d="M534 693h68v-693h-68v333h-376v-333h-68v693h68v-301h376v301zM242 740l-28 31l132 147l132 -147l-28 -31l-104 96z" />
<glyph unicode="&#x125;" horiz-adv-x="569" d="M86 0v764l65 12v-274q32 12 65 18.5t66 6.5q60 0 100 -17t64 -48.5t33.5 -75.5t9.5 -97v-289h-65v268q0 55 -7.5 93t-25 62t-46.5 34.5t-73 10.5q-17 0 -36.5 -3t-36.5 -6.5t-30.5 -7.5t-17.5 -6v-445h-65zM296 860l-22 -35l-97 68l-97 -68l-22 35l119 98z" />
<glyph unicode="&#x126;" horiz-adv-x="720" d="M616 532v-532h-68v333h-376v-333h-68v532h-80v54h80v107h68v-107h376v107h68v-107h80v-54h-80zM548 532h-376v-140h376v140z" />
<glyph unicode="&#x127;" horiz-adv-x="569" d="M86 0v628h-80v52h80v84l65 12v-96h187v-52h-187v-126q32 12 65 18.5t66 6.5q60 0 100 -17t64 -48.5t33.5 -75.5t9.5 -97v-289h-65v268q0 55 -7.5 93t-25 62t-46.5 34.5t-73 10.5q-17 0 -36.5 -3t-36.5 -6.5t-30.5 -7.5t-17.5 -6v-445h-65z" />
<glyph unicode="&#x128;" horiz-adv-x="248" d="M90 693h68v-693h-68v693zM188 785q-22 0 -40 7t-35 15q-19 10 -31 13.5t-22 3.5q-21 0 -33 -14t-22 -31l-38 18q5 12 13.5 26t20 26t27 20t35.5 8q22 0 40 -7t35 -15q19 -10 31 -13.5t22 -3.5q21 0 33 14t22 31l38 -18q-5 -12 -13.5 -26t-20 -26t-27 -20t-35.5 -8z" />
<glyph unicode="&#x129;" horiz-adv-x="237" d="M151 0h-65v517h65v-517zM182 629q-22 0 -40 7t-35 15q-19 10 -31 13.5t-22 3.5q-21 0 -33 -14t-22 -31l-38 18q5 12 13.5 26t20 26t27 20t35.5 8q22 0 40 -7t35 -15q19 -10 31 -13.5t22 -3.5q21 0 33 14t22 31l38 -18q-5 -12 -13.5 -26t-20 -26t-27 -20t-35.5 -8z" />
<glyph unicode="&#x12a;" horiz-adv-x="248" d="M90 693h68v-693h-68v693zM-7 805v55h265v-55h-265z" />
<glyph unicode="&#x12b;" horiz-adv-x="237" d="M151 0h-65v517h65v-517zM-13 649v55h265v-55h-265z" />
<glyph unicode="&#x12c;" horiz-adv-x="248" d="M90 693h68v-693h-68v693zM125 769q-24 0 -46.5 8t-40 24t-27 41t-8.5 60h43q0 -7 2.5 -20t10.5 -25.5t23.5 -22t42.5 -9.5t42.5 9.5t23.5 22t10.5 25.5t2.5 20h43q1 -35 -8.5 -60t-27 -41t-40 -24t-46.5 -8z" />
<glyph unicode="&#x12d;" horiz-adv-x="237" d="M151 0h-65v517h65v-517zM119 613q-24 0 -46.5 8t-40 24t-27 41t-8.5 60h43q0 -7 2.5 -20t10.5 -25.5t23.5 -22t42.5 -9.5t42.5 9.5t23.5 22t10.5 25.5t2.5 20h43q1 -35 -8.5 -60t-27 -41t-40 -24t-46.5 -8z" />
<glyph unicode="&#x12e;" horiz-adv-x="248" d="M158 0q-10 -8 -20.5 -17t-21.5 -21q-16 -17 -25 -31.5t-9 -31.5q0 -18 12 -26t30 -8q9 0 19.5 1.5t18.5 4.5l5 -48q-8 -3 -23.5 -6t-30.5 -3q-54 0 -76 19.5t-22 50.5t16 55t38 44q5 5 10.5 9t10.5 8v693h68v-693z" />
<glyph unicode="&#x12f;" horiz-adv-x="237" d="M151 0q-8 -8 -19 -17t-22 -21q-16 -17 -24 -31.5t-8 -31.5q0 -18 12 -26t30 -8q9 0 19.5 1.5t18.5 4.5l5 -48q-8 -3 -23.5 -6t-30.5 -3q-54 0 -76 19.5t-22 50.5t16 55t38 44q5 5 10.5 9t10.5 8v517h65v-517zM166 673q0 -23 -14 -36.5t-34 -13.5t-34 13.5t-14 36.5 t14 36.5t34 13.5t34 -13.5t14 -36.5z" />
<glyph unicode="&#x130;" horiz-adv-x="248" d="M90 693h68v-693h-68v693zM125 779q-20 0 -34 13.5t-14 36.5t14 36.5t34 13.5t34 -13.5t14 -36.5t-14 -36.5t-34 -13.5z" />
<glyph unicode="&#x131;" horiz-adv-x="237" d="M151 0h-65v517h65v-517z" />
<glyph unicode="&#x132;" horiz-adv-x="735" d="M90 693h68v-693h-68v693zM648 218q0 -50 -10 -92.5t-34.5 -74t-65 -49t-101.5 -17.5q-36 0 -66 6.5t-53 15.5t-38.5 19t-23.5 18l32 55q9 -8 22.5 -17.5t31.5 -17.5t40 -13t48 -5q77 0 113.5 40.5t36.5 138.5v468h68v-475z" />
<glyph unicode="&#x133;" horiz-adv-x="474" d="M151 0h-65v517h65v-517zM166 673q0 -23 -14 -36.5t-34 -13.5t-34 13.5t-14 36.5t14 36.5t34 13.5t34 -13.5t14 -36.5zM226 -187q-11 0 -27.5 3t-24.5 7l9 53q7 -2 19 -4t23 -2q59 0 78.5 33t19.5 99v515h65v-512q0 -98 -37 -145t-125 -47zM403 673q0 -23 -14 -36.5 t-34 -13.5t-34 13.5t-14 36.5t14 36.5t34 13.5t34 -13.5t14 -36.5z" />
<glyph unicode="&#x134;" horiz-adv-x="487" d="M400 218q0 -50 -10 -92.5t-34.5 -74t-65 -49t-101.5 -17.5q-36 0 -66 6.5t-53 15.5t-38.5 19t-23.5 18l32 55q9 -8 22.5 -17.5t31.5 -17.5t40 -13t48 -5q77 0 113.5 40.5t36.5 138.5v468h68v-475zM262 740l-28 31l132 147l132 -147l-28 -31l-104 96z" />
<glyph unicode="&#x135;" horiz-adv-x="237" d="M-11 -187q-11 0 -27.5 3t-24.5 7l9 53q7 -2 19 -4t23 -2q59 0 78.5 33t19.5 99v515h65v-512q0 -98 -37 -145t-125 -47zM15 584l-28 31l132 147l132 -147l-28 -31l-104 96z" />
<glyph unicode="&#x136;" horiz-adv-x="599" d="M513 0q-34 52 -76.5 103t-89.5 96t-95.5 82t-93.5 62v-343h-68v693h68v-323q38 34 84.5 78.5t92 89.5t85.5 86t64 69h82q-29 -31 -70 -73.5t-87 -87.5t-91.5 -88.5t-81.5 -76.5q29 -18 62.5 -44.5t68 -58t68 -66t63 -69.5t53 -68t38.5 -61h-76zM296 -68v13h64q1 -4 1 -9 v-8q0 -54 -30 -84t-78 -30q-8 0 -17 1t-14 3v43q43 0 58.5 17t15.5 54z" />
<glyph unicode="&#x137;" horiz-adv-x="495" d="M224 281q31 -21 66.5 -54t70 -71.5t65 -79t51.5 -76.5h-77q-24 40 -54.5 78.5t-64 72.5t-67 62t-63.5 47v-260h-65v764l65 12v-492q25 24 56 55t62.5 63t59.5 62t48 53h78q-23 -24 -52 -54t-60.5 -62.5t-62.5 -63.5zM239 -68v13h64q1 -4 1 -9v-8q0 -54 -30 -84t-78 -30 q-8 0 -17 1t-14 3v43q43 0 58.5 17t15.5 54z" />
<glyph unicode="&#x138;" horiz-adv-x="506" d="M86 0v517h65v-239q28 27 62.5 60.5t67.5 67t61.5 63t45.5 48.5h78q-23 -26 -55 -58.5t-65.5 -65.5t-65 -64t-55.5 -53q34 -22 72 -54.5t73.5 -70t66 -77t51.5 -74.5h-77q-24 37 -56.5 75t-68 72.5t-71 62.5t-64.5 45v-255h-65z" />
<glyph unicode="&#x139;" horiz-adv-x="502" d="M484 59v-59h-394v693h68v-634h326zM283 878l-171 -139l-33 38l158 152z" />
<glyph unicode="&#x13a;" horiz-adv-x="255" d="M217 -9q-33 1 -57.5 8.5t-41 23t-25 40t-8.5 61.5v640l65 12v-650q0 -24 4.5 -38.5t13.5 -23t23.5 -12.5t34.5 -7zM226 940l23 -58l-166 -59l-15 41z" />
<glyph unicode="&#x13b;" horiz-adv-x="502" d="M484 59v-59h-394v693h68v-634h326zM262 -68v13h64q1 -4 1 -9v-8q0 -54 -30 -84t-78 -30q-8 0 -17 1t-14 3v43q43 0 58.5 17t15.5 54z" />
<glyph unicode="&#x13c;" horiz-adv-x="255" d="M217 -9q-33 1 -57.5 8.5t-41 23t-25 40t-8.5 61.5v640l65 12v-650q0 -24 4.5 -38.5t13.5 -23t23.5 -12.5t34.5 -7zM112 -68v13h64q1 -4 1 -9v-8q0 -54 -30 -84t-78 -30q-8 0 -17 1t-14 3v43q43 0 58.5 17t15.5 54z" />
<glyph unicode="&#x13d;" horiz-adv-x="502" d="M484 59v-59h-394v693h68v-634h326zM328 694l-24 -217h-47v217h71z" />
<glyph unicode="&#x13e;" horiz-adv-x="268" d="M217 -9q-33 1 -57.5 8.5t-41 23t-25 40t-8.5 61.5v640l65 12v-650q0 -24 4.5 -38.5t13.5 -23t23.5 -12.5t34.5 -7zM300 776l-24 -217h-47v217h71z" />
<glyph unicode="&#x13f;" horiz-adv-x="502" d="M484 59v-59h-394v693h68v-634h326zM375 314q-20 0 -34 13.5t-14 36.5t14 36.5t34 13.5t34 -13.5t14 -36.5t-14 -36.5t-34 -13.5z" />
<glyph unicode="&#x140;" horiz-adv-x="309" d="M217 -9q-33 1 -57.5 8.5t-41 23t-25 40t-8.5 61.5v640l65 12v-650q0 -24 4.5 -38.5t13.5 -23t23.5 -12.5t34.5 -7zM273 314q-20 0 -34 13.5t-14 36.5t14 36.5t34 13.5t34 -13.5t14 -36.5t-14 -36.5t-34 -13.5z" />
<glyph unicode="&#x141;" horiz-adv-x="516" d="M285 449l23 -48l-136 -71v-271h326v-59h-394v295l-78 -40l-25 48l103 53v337h68v-302z" />
<glyph unicode="&#x142;" horiz-adv-x="255" d="M229 477l22 -48l-96 -50v-254q0 -24 4.5 -38.5t13.5 -23t23.5 -12.5t34.5 -7l-9 -54q-33 2 -57.5 9.5t-41 22.5t-25 39.5t-8.5 61.5v222l-54 -28l-23 47l77 40v360l65 12v-337z" />
<glyph unicode="&#x143;" horiz-adv-x="709" d="M562 0q-19 35 -48.5 82t-64.5 100.5t-74 110t-77.5 110t-75 100.5t-65.5 81v-584h-67v693h54q51 -57 109.5 -131.5t114.5 -152t104.5 -151.5t79.5 -129v564h67v-693h-57zM492 878l-171 -139l-33 38l158 152z" />
<glyph unicode="&#x144;" horiz-adv-x="569" d="M86 499q29 8 78 18t120 10q59 0 98.5 -17t63 -48.5t33.5 -75.5t10 -97v-289h-65v268q0 55 -7.5 93t-25 62t-46 34.5t-71.5 10.5q-46 0 -79.5 -5t-43.5 -9v-454h-65v499zM425 722l-171 -139l-33 38l158 152z" />
<glyph unicode="&#x145;" horiz-adv-x="709" d="M562 0q-19 35 -48.5 82t-64.5 100.5t-74 110t-77.5 110t-75 100.5t-65.5 81v-584h-67v693h54q51 -57 109.5 -131.5t114.5 -152t104.5 -151.5t79.5 -129v564h67v-693h-57zM327 -68v13h64q1 -4 1 -9v-8q0 -54 -30 -84t-78 -30q-8 0 -17 1t-14 3v43q43 0 58.5 17t15.5 54z " />
<glyph unicode="&#x146;" horiz-adv-x="569" d="M86 499q29 8 78 18t120 10q59 0 98.5 -17t63 -48.5t33.5 -75.5t10 -97v-289h-65v268q0 55 -7.5 93t-25 62t-46 34.5t-71.5 10.5q-46 0 -79.5 -5t-43.5 -9v-454h-65v499zM258 -68v13h64q1 -4 1 -9v-8q0 -54 -30 -84t-78 -30q-8 0 -17 1t-14 3v43q43 0 58.5 17t15.5 54z " />
<glyph unicode="&#x147;" horiz-adv-x="709" d="M562 0q-19 35 -48.5 82t-64.5 100.5t-74 110t-77.5 110t-75 100.5t-65.5 81v-584h-67v693h54q51 -57 109.5 -131.5t114.5 -152t104.5 -151.5t79.5 -129v564h67v-693h-57zM354 825l104 96l28 -31l-132 -147l-132 147l28 31z" />
<glyph unicode="&#x148;" horiz-adv-x="569" d="M86 499q29 8 78 18t120 10q59 0 98.5 -17t63 -48.5t33.5 -75.5t10 -97v-289h-65v268q0 55 -7.5 93t-25 62t-46 34.5t-71.5 10.5q-46 0 -79.5 -5t-43.5 -9v-454h-65v499zM287 669l104 96l28 -31l-132 -147l-132 147l28 31z" />
<glyph unicode="&#x149;" horiz-adv-x="569" d="M86 499q29 8 78 18t120 10q59 0 98.5 -17t63 -48.5t33.5 -75.5t10 -97v-289h-65v268q0 55 -7.5 93t-25 62t-46 34.5t-71.5 10.5q-46 0 -79.5 -5t-43.5 -9v-454h-65v499zM140 776q0 -63 -18 -110t-48 -97l-45 21q17 35 28.5 74t11.5 77q0 9 -0.5 19.5t-1.5 15.5h73z" />
<glyph unicode="&#x14a;" horiz-adv-x="709" d="M552 17q-21 37 -50.5 84t-64 99t-72 106t-74.5 105t-71.5 95.5t-62.5 77.5v-584h-67v693h54q51 -57 109.5 -131.5t114.5 -152t104.5 -151.5t79.5 -129v564h67v-719q0 -34 -4 -63.5t-17.5 -51t-38 -34t-66.5 -12.5q-17 0 -32.5 3t-23.5 6l9 54q5 -2 15 -4t22 -2 q38 0 53.5 22.5t15.5 70.5v54z" />
<glyph unicode="&#x14b;" horiz-adv-x="569" d="M424 268q0 55 -7.5 93t-25 62t-46 34.5t-71.5 10.5q-46 0 -79.5 -5t-43.5 -9v-454h-65v499q29 8 78 18t120 10q59 0 98.5 -17t63 -48.5t33.5 -75.5t10 -97v-315q0 -34 -4 -63.5t-17 -51t-37.5 -33.5t-66.5 -12q-17 0 -31 2.5t-22 5.5l9 53q12 -5 36 -5q38 0 53 22.5 t15 70.5v305z" />
<glyph unicode="&#x14c;" horiz-adv-x="774" d="M712 347q0 -89 -26 -157t-70.5 -113.5t-103.5 -68.5t-125 -23t-125 23t-103.5 68.5t-70.5 113.5t-26 157t26 156.5t70.5 113t103.5 68.5t125 23t125 -23t103.5 -68.5t70.5 -113t26 -156.5zM640 347q0 70 -18 125.5t-51 94.5t-79.5 59.5t-104.5 20.5t-104.5 -20.5 t-79.5 -59.5t-51 -94.5t-18 -125.5t18 -125.5t51 -94.5t79.5 -60t104.5 -21t104.5 21t79.5 60t51 94.5t18 125.5zM255 805v55h265v-55h-265z" />
<glyph unicode="&#x14d;" horiz-adv-x="582" d="M527 258q0 -61 -17.5 -111t-49 -85t-74.5 -54.5t-95 -19.5t-95 19.5t-74.5 54.5t-49 85t-17.5 111t17.5 111t49 85.5t74.5 55t95 19.5t95 -19.5t74.5 -55t49 -85.5t17.5 -111zM458 258q0 97 -45 154.5t-122 57.5t-122 -57.5t-45 -154.5t45 -154t122 -57t122 57t45 154z M159 649v55h265v-55h-265z" />
<glyph unicode="&#x14e;" horiz-adv-x="774" d="M712 347q0 -89 -26 -157t-70.5 -113.5t-103.5 -68.5t-125 -23t-125 23t-103.5 68.5t-70.5 113.5t-26 157t26 156.5t70.5 113t103.5 68.5t125 23t125 -23t103.5 -68.5t70.5 -113t26 -156.5zM640 347q0 70 -18 125.5t-51 94.5t-79.5 59.5t-104.5 20.5t-104.5 -20.5 t-79.5 -59.5t-51 -94.5t-18 -125.5t18 -125.5t51 -94.5t79.5 -60t104.5 -21t104.5 21t79.5 60t51 94.5t18 125.5zM387 769q-24 0 -46.5 8t-40 24t-27 41t-8.5 60h43q0 -7 2.5 -20t10.5 -25.5t23.5 -22t42.5 -9.5t42.5 9.5t23.5 22t10.5 25.5t2.5 20h43q1 -35 -8.5 -60 t-27 -41t-40 -24t-46.5 -8z" />
<glyph unicode="&#x14f;" horiz-adv-x="582" d="M527 258q0 -61 -17.5 -111t-49 -85t-74.5 -54.5t-95 -19.5t-95 19.5t-74.5 54.5t-49 85t-17.5 111t17.5 111t49 85.5t74.5 55t95 19.5t95 -19.5t74.5 -55t49 -85.5t17.5 -111zM458 258q0 97 -45 154.5t-122 57.5t-122 -57.5t-45 -154.5t45 -154t122 -57t122 57t45 154z M291 613q-24 0 -46.5 8t-40 24t-27 41t-8.5 60h43q0 -7 2.5 -20t10.5 -25.5t23.5 -22t42.5 -9.5t42.5 9.5t23.5 22t10.5 25.5t2.5 20h43q1 -35 -8.5 -60t-27 -41t-40 -24t-46.5 -8z" />
<glyph unicode="&#x150;" horiz-adv-x="774" d="M712 347q0 -89 -26 -157t-70.5 -113.5t-103.5 -68.5t-125 -23t-125 23t-103.5 68.5t-70.5 113.5t-26 157t26 156.5t70.5 113t103.5 68.5t125 23t125 -23t103.5 -68.5t70.5 -113t26 -156.5zM640 347q0 70 -18 125.5t-51 94.5t-79.5 59.5t-104.5 20.5t-104.5 -20.5 t-79.5 -59.5t-51 -94.5t-18 -125.5t18 -125.5t51 -94.5t79.5 -60t104.5 -21t104.5 21t79.5 60t51 94.5t18 125.5zM440 887l-126 -149l-39 29l119 162zM597 887l-126 -149l-39 29l119 162z" />
<glyph unicode="&#x151;" horiz-adv-x="582" d="M527 258q0 -61 -17.5 -111t-49 -85t-74.5 -54.5t-95 -19.5t-95 19.5t-74.5 54.5t-49 85t-17.5 111t17.5 111t49 85.5t74.5 55t95 19.5t95 -19.5t74.5 -55t49 -85.5t17.5 -111zM458 258q0 97 -45 154.5t-122 57.5t-122 -57.5t-45 -154.5t45 -154t122 -57t122 57t45 154z M344 731l-126 -149l-39 29l119 162zM501 731l-126 -149l-39 29l119 162z" />
<glyph unicode="&#x152;" horiz-adv-x="990" d="M539 633q-6 1 -29.5 4t-77.5 3q-73 0 -128.5 -20.5t-92.5 -58.5t-55.5 -92t-18.5 -122t18.5 -122.5t55.5 -92.5t92.5 -58.5t128.5 -20.5q54 0 77.5 3t29.5 4v573zM540 0q-50 -6 -100 -6q-83 0 -151.5 22t-118.5 66t-77.5 110t-27.5 155q0 88 27.5 154t77.5 110t118.5 66 t151.5 22q24 0 49.5 -1.5t49.5 -4.5h386v-59h-318v-241h282v-58h-282v-276h344v-59h-411z" />
<glyph unicode="&#x153;" horiz-adv-x="944" d="M291 529q70 0 119.5 -34.5t77.5 -95.5q29 65 79 97.5t110 32.5q95 0 151.5 -62t56.5 -191q0 -8 -0.5 -16t-1.5 -15h-363q3 -95 47 -146t140 -51q53 0 84 10t45 17l12 -56q-14 -8 -52.5 -19t-90.5 -11q-90 0 -141 33t-77 91q-29 -59 -78 -92t-118 -33q-52 0 -95 19.5 t-74.5 54.5t-49 85t-17.5 111t17.5 111t49 85.5t74.5 55t95 19.5zM458 258q0 97 -45 154.5t-122 57.5t-122 -57.5t-45 -154.5t45 -154t122 -57t122 57t45 154zM818 300q-2 81 -38 126t-102 45q-35 0 -62.5 -14t-48 -37.5t-32 -54.5t-13.5 -65h296z" />
<glyph unicode="&#x154;" horiz-adv-x="618" d="M552 485q0 -78 -41 -123t-108 -65q16 -20 41.5 -54t52.5 -74.5t53 -84.5t44 -84h-73q-21 40 -45.5 80t-50 77.5t-49.5 69.5l-42 56q-32 -3 -64 -3h-112v-280h-68v680q36 10 84.5 14.5t89.5 4.5q143 0 215.5 -54t72.5 -160zM272 640q-38 0 -66.5 -2.5t-47.5 -4.5v-295h94 q47 0 89 4.5t73 20t49 44.5t18 79q0 46 -18 76t-47 47.5t-66.5 24t-77.5 6.5zM427 878l-171 -139l-33 38l158 152z" />
<glyph unicode="&#x155;" horiz-adv-x="374" d="M262 527q32 0 60.5 -5t39.5 -10l-13 -56q-8 4 -32.5 8.5t-64.5 4.5q-42 0 -67.5 -6t-33.5 -10v-453h-65v493q25 11 69 22.5t107 11.5zM365 722l-171 -139l-33 38l158 152z" />
<glyph unicode="&#x156;" horiz-adv-x="618" d="M552 485q0 -78 -41 -123t-108 -65q16 -20 41.5 -54t52.5 -74.5t53 -84.5t44 -84h-73q-21 40 -45.5 80t-50 77.5t-49.5 69.5l-42 56q-32 -3 -64 -3h-112v-280h-68v680q36 10 84.5 14.5t89.5 4.5q143 0 215.5 -54t72.5 -160zM272 640q-38 0 -66.5 -2.5t-47.5 -4.5v-295h94 q47 0 89 4.5t73 20t49 44.5t18 79q0 46 -18 76t-47 47.5t-66.5 24t-77.5 6.5zM295 -68v13h64q1 -4 1 -9v-8q0 -54 -30 -84t-78 -30q-8 0 -17 1t-14 3v43q43 0 58.5 17t15.5 54z" />
<glyph unicode="&#x157;" horiz-adv-x="374" d="M262 527q32 0 60.5 -5t39.5 -10l-13 -56q-8 4 -32.5 8.5t-64.5 4.5q-42 0 -67.5 -6t-33.5 -10v-453h-65v493q25 11 69 22.5t107 11.5zM87 -68v13h64q1 -4 1 -9v-8q0 -54 -30 -84t-78 -30q-8 0 -17 1t-14 3v43q43 0 58.5 17t15.5 54z" />
<glyph unicode="&#x158;" horiz-adv-x="618" d="M552 485q0 -78 -41 -123t-108 -65q16 -20 41.5 -54t52.5 -74.5t53 -84.5t44 -84h-73q-21 40 -45.5 80t-50 77.5t-49.5 69.5l-42 56q-32 -3 -64 -3h-112v-280h-68v680q36 10 84.5 14.5t89.5 4.5q143 0 215.5 -54t72.5 -160zM272 640q-38 0 -66.5 -2.5t-47.5 -4.5v-295h94 q47 0 89 4.5t73 20t49 44.5t18 79q0 46 -18 76t-47 47.5t-66.5 24t-77.5 6.5zM289 825l104 96l28 -31l-132 -147l-132 147l28 31z" />
<glyph unicode="&#x159;" horiz-adv-x="374" d="M262 527q32 0 60.5 -5t39.5 -10l-13 -56q-8 4 -32.5 8.5t-64.5 4.5q-42 0 -67.5 -6t-33.5 -10v-453h-65v493q25 11 69 22.5t107 11.5zM227 669l104 96l28 -31l-132 -147l-132 147l28 31z" />
<glyph unicode="&#x15a;" horiz-adv-x="517" d="M239 44q81 0 126 29.5t45 95.5q0 38 -14.5 63.5t-38.5 43t-55 30t-65 26.5q-43 17 -77 35t-58 40.5t-36.5 51.5t-12.5 68q0 89 59 135t164 46q28 0 55 -4t50.5 -10.5t43 -14.5t32.5 -17l-24 -57q-29 20 -70.5 32t-89.5 12q-33 0 -60.5 -6.5t-47.5 -21t-31.5 -36.5 t-11.5 -53q0 -32 12 -54t33.5 -38t50.5 -29t63 -27q41 -17 77.5 -34t63.5 -40t43 -56t16 -81q0 -94 -65.5 -141t-177.5 -47q-40 0 -73 5t-59 12.5t-44 15.5t-28 14l22 59q10 -6 27 -14t40 -15.5t52 -12.5t64 -5zM402 878l-171 -139l-33 38l158 152z" />
<glyph unicode="&#x15b;" horiz-adv-x="428" d="M192 46q56 0 92.5 18.5t36.5 62.5q0 21 -6.5 36t-21.5 27t-39.5 23t-60.5 26q-29 12 -55 24.5t-46 29t-32 39.5t-12 56q0 63 47.5 102t130.5 39q53 0 87.5 -9t48.5 -16l-15 -58q-12 6 -40.5 16t-83.5 10q-22 0 -41.5 -4.5t-34.5 -14t-24 -24t-9 -35.5t8 -36t23.5 -26.5 t38 -21.5t51.5 -22q30 -12 57.5 -24.5t48.5 -30t34 -42t13 -61.5q0 -70 -52.5 -106t-143.5 -36q-68 0 -104 11.5t-48 17.5l17 59q3 -2 13 -6.5t27 -10t40.5 -9.5t54.5 -4zM347 722l-171 -139l-33 38l158 152z" />
<glyph unicode="&#x15c;" horiz-adv-x="517" d="M239 44q81 0 126 29.5t45 95.5q0 38 -14.5 63.5t-38.5 43t-55 30t-65 26.5q-43 17 -77 35t-58 40.5t-36.5 51.5t-12.5 68q0 89 59 135t164 46q28 0 55 -4t50.5 -10.5t43 -14.5t32.5 -17l-24 -57q-29 20 -70.5 32t-89.5 12q-33 0 -60.5 -6.5t-47.5 -21t-31.5 -36.5 t-11.5 -53q0 -32 12 -54t33.5 -38t50.5 -29t63 -27q41 -17 77.5 -34t63.5 -40t43 -56t16 -81q0 -94 -65.5 -141t-177.5 -47q-40 0 -73 5t-59 12.5t-44 15.5t-28 14l22 59q10 -6 27 -14t40 -15.5t52 -12.5t64 -5zM160 740l-28 31l132 147l132 -147l-28 -31l-104 96z" />
<glyph unicode="&#x15d;" horiz-adv-x="428" d="M192 46q56 0 92.5 18.5t36.5 62.5q0 21 -6.5 36t-21.5 27t-39.5 23t-60.5 26q-29 12 -55 24.5t-46 29t-32 39.5t-12 56q0 63 47.5 102t130.5 39q53 0 87.5 -9t48.5 -16l-15 -58q-12 6 -40.5 16t-83.5 10q-22 0 -41.5 -4.5t-34.5 -14t-24 -24t-9 -35.5t8 -36t23.5 -26.5 t38 -21.5t51.5 -22q30 -12 57.5 -24.5t48.5 -30t34 -42t13 -61.5q0 -70 -52.5 -106t-143.5 -36q-68 0 -104 11.5t-48 17.5l17 59q3 -2 13 -6.5t27 -10t40.5 -9.5t54.5 -4zM105 584l-28 31l132 147l132 -147l-28 -31l-104 96z" />
<glyph unicode="&#x15e;" horiz-adv-x="517" d="M264 -36q28 -12 44.5 -29.5t16.5 -46.5q0 -12 -4 -25.5t-15 -24.5t-30 -18t-49 -7q-20 0 -41 3.5t-30 8.5l8 43q11 -5 25 -7t34 -2q41 0 41 29q0 17 -14 26t-44 21q3 11 9 24t13 26q-38 1 -69.5 6t-56 12.5t-42 15t-26.5 13.5l22 59q10 -6 27 -14t40 -15.5t52 -12.5 t64 -5q81 0 126 29.5t45 95.5q0 38 -14.5 63.5t-38.5 43t-55 30t-65 26.5q-43 17 -77 35t-58 40.5t-36.5 51.5t-12.5 68q0 89 59 135t164 46q28 0 55 -4t50.5 -10.5t43 -14.5t32.5 -17l-24 -57q-29 20 -70.5 32t-89.5 12q-33 0 -60.5 -6.5t-47.5 -21t-31.5 -36.5t-11.5 -53 q0 -32 12 -54t33.5 -38t50.5 -29t63 -27q41 -17 77.5 -34t63.5 -40t43 -56t16 -81q0 -87 -55 -133t-152 -53q-3 -6 -5.5 -12t-4.5 -11z" />
<glyph unicode="&#x15f;" horiz-adv-x="428" d="M221 -36q28 -12 44.5 -29.5t16.5 -46.5q0 -12 -4 -25.5t-15 -24.5t-30 -18t-49 -7q-20 0 -41 3.5t-30 8.5l8 43q11 -5 25 -7t34 -2q41 0 41 29q0 17 -14 26t-44 21q4 11 10 25.5t13 27.5q-65 1 -100 12t-46 17l17 59q3 -2 13 -6.5t27 -10t40.5 -9.5t54.5 -4 q56 0 92.5 18.5t36.5 62.5q0 21 -6.5 36t-21.5 27t-39.5 23t-60.5 26q-29 12 -55 24.5t-46 29t-32 39.5t-12 56q0 63 47.5 102t130.5 39q53 0 87.5 -9t48.5 -16l-15 -58q-12 6 -40.5 16t-83.5 10q-22 0 -41.5 -4.5t-34.5 -14t-24 -24t-9 -35.5t8 -36t23.5 -26.5t38 -21.5 t51.5 -22q30 -12 57.5 -24.5t48.5 -30t34 -42t13 -61.5q0 -62 -41.5 -97t-113.5 -42q-8 -15 -12 -27z" />
<glyph unicode="&#x160;" horiz-adv-x="517" d="M239 44q81 0 126 29.5t45 95.5q0 38 -14.5 63.5t-38.5 43t-55 30t-65 26.5q-43 17 -77 35t-58 40.5t-36.5 51.5t-12.5 68q0 89 59 135t164 46q28 0 55 -4t50.5 -10.5t43 -14.5t32.5 -17l-24 -57q-29 20 -70.5 32t-89.5 12q-33 0 -60.5 -6.5t-47.5 -21t-31.5 -36.5 t-11.5 -53q0 -32 12 -54t33.5 -38t50.5 -29t63 -27q41 -17 77.5 -34t63.5 -40t43 -56t16 -81q0 -94 -65.5 -141t-177.5 -47q-40 0 -73 5t-59 12.5t-44 15.5t-28 14l22 59q10 -6 27 -14t40 -15.5t52 -12.5t64 -5zM264 825l104 96l28 -31l-132 -147l-132 147l28 31z" />
<glyph unicode="&#x161;" horiz-adv-x="428" d="M192 46q56 0 92.5 18.5t36.5 62.5q0 21 -6.5 36t-21.5 27t-39.5 23t-60.5 26q-29 12 -55 24.5t-46 29t-32 39.5t-12 56q0 63 47.5 102t130.5 39q53 0 87.5 -9t48.5 -16l-15 -58q-12 6 -40.5 16t-83.5 10q-22 0 -41.5 -4.5t-34.5 -14t-24 -24t-9 -35.5t8 -36t23.5 -26.5 t38 -21.5t51.5 -22q30 -12 57.5 -24.5t48.5 -30t34 -42t13 -61.5q0 -70 -52.5 -106t-143.5 -36q-68 0 -104 11.5t-48 17.5l17 59q3 -2 13 -6.5t27 -10t40.5 -9.5t54.5 -4zM209 669l104 96l28 -31l-132 -147l-132 147l28 31z" />
<glyph unicode="&#x162;" horiz-adv-x="548" d="M281 -36q28 -12 44.5 -29.5t16.5 -46.5q0 -12 -4 -25.5t-15 -24.5t-30 -18t-49 -7q-20 0 -41 3.5t-30 8.5l8 43q11 -5 25 -7t34 -2q41 0 41 29q0 17 -14 26t-44 21q5 14 13 32.5t16 32.5h-12v634h-222v59h512v-59h-222v-634h-10q-5 -9 -9.5 -18.5t-7.5 -17.5z" />
<glyph unicode="&#x163;" horiz-adv-x="387" d="M243 -36q28 -12 44.5 -29.5t16.5 -46.5q0 -12 -4 -25.5t-15 -24.5t-30 -18t-49 -7q-20 0 -41 3.5t-30 8.5l8 43q11 -5 25 -7t34 -2q41 0 41 29q0 17 -14 26t-44 21q3 10 9 23t12 25q2 5 4 9q-23 3 -41 9q-32 13 -51.5 38.5t-27.5 63.5t-8 90v476l65 12v-164h206v-55h-206 v-275q0 -44 7.5 -71.5t21.5 -42.5t34 -20t44 -5q41 0 66 9.5t39 17.5l16 -54q-14 -9 -49 -21q-33 -10 -72 -11q-7 -14 -11 -25z" />
<glyph unicode="&#x164;" horiz-adv-x="548" d="M530 693v-59h-222v-634h-68v634h-222v59h512zM271 825l104 96l28 -31l-132 -147l-132 147l28 31z" />
<glyph unicode="&#x165;" horiz-adv-x="387" d="M147 517h206v-55h-206v-275q0 -44 7.5 -71.5t21.5 -42.5t34 -20t44 -5q41 0 66 9.5t39 17.5l16 -54q-14 -9 -49 -20.5t-76 -11.5q-48 0 -80.5 12.5t-52 38t-27.5 63.5t-8 90v476l65 12v-164zM287 776l-26 -194h-45v194h71z" />
<glyph unicode="&#x166;" horiz-adv-x="548" d="M530 693v-59h-222v-251h124v-54h-124v-329h-68v329h-124v54h124v251h-222v59h512z" />
<glyph unicode="&#x167;" horiz-adv-x="387" d="M147 517h206v-55h-206v-164h202v-53h-202v-58q0 -44 7.5 -71.5t21.5 -42.5t34 -20t44 -5q41 0 66 9.5t39 17.5l16 -54q-14 -9 -49 -20.5t-76 -11.5q-48 0 -80.5 12.5t-52 38t-27.5 63.5t-8 90v476l65 12v-164z" />
<glyph unicode="&#x168;" horiz-adv-x="680" d="M340 -15q-69 0 -117.5 21t-78.5 58t-43.5 86.5t-13.5 106.5v436h68v-427q0 -57 13.5 -98.5t37.5 -68.5t58 -40t76 -13t76 13t58 40t37.5 68.5t13.5 98.5v427h68v-436q0 -57 -13.5 -106.5t-43.5 -86.5t-78.5 -58t-117.5 -21zM403 785q-22 0 -40 7t-35 15q-19 10 -31 13.5 t-22 3.5q-21 0 -33 -14t-22 -31l-38 18q5 12 13.5 26t20 26t27 20t35.5 8q22 0 40 -7t35 -15q19 -10 31 -13.5t22 -3.5q21 0 33 14t22 31l38 -18q-5 -12 -13.5 -26t-20 -26t-27 -20t-35.5 -8z" />
<glyph unicode="&#x169;" horiz-adv-x="569" d="M483 18q-29 -8 -78 -18t-120 -10q-58 0 -97 17t-63 48t-34.5 75t-10.5 97v290h65v-269q0 -55 8 -93t26 -61.5t46.5 -34t69.5 -10.5q46 0 80 5t43 9v454h65v-499zM344 629q-22 0 -40 7t-35 15q-19 10 -31 13.5t-22 3.5q-21 0 -33 -14t-22 -31l-38 18q5 12 13.5 26t20 26 t27 20t35.5 8q22 0 40 -7t35 -15q19 -10 31 -13.5t22 -3.5q21 0 33 14t22 31l38 -18q-5 -12 -13.5 -26t-20 -26t-27 -20t-35.5 -8z" />
<glyph unicode="&#x16a;" horiz-adv-x="680" d="M340 -15q-69 0 -117.5 21t-78.5 58t-43.5 86.5t-13.5 106.5v436h68v-427q0 -57 13.5 -98.5t37.5 -68.5t58 -40t76 -13t76 13t58 40t37.5 68.5t13.5 98.5v427h68v-436q0 -57 -13.5 -106.5t-43.5 -86.5t-78.5 -58t-117.5 -21zM208 805v55h265v-55h-265z" />
<glyph unicode="&#x16b;" horiz-adv-x="569" d="M483 18q-29 -8 -78 -18t-120 -10q-58 0 -97 17t-63 48t-34.5 75t-10.5 97v290h65v-269q0 -55 8 -93t26 -61.5t46.5 -34t69.5 -10.5q46 0 80 5t43 9v454h65v-499zM149 649v55h265v-55h-265z" />
<glyph unicode="&#x16c;" horiz-adv-x="680" d="M340 -15q-69 0 -117.5 21t-78.5 58t-43.5 86.5t-13.5 106.5v436h68v-427q0 -57 13.5 -98.5t37.5 -68.5t58 -40t76 -13t76 13t58 40t37.5 68.5t13.5 98.5v427h68v-436q0 -57 -13.5 -106.5t-43.5 -86.5t-78.5 -58t-117.5 -21zM340 769q-24 0 -46.5 8t-40 24t-27 41t-8.5 60 h43q0 -7 2.5 -20t10.5 -25.5t23.5 -22t42.5 -9.5t42.5 9.5t23.5 22t10.5 25.5t2.5 20h43q1 -35 -8.5 -60t-27 -41t-40 -24t-46.5 -8z" />
<glyph unicode="&#x16d;" horiz-adv-x="569" d="M483 18q-29 -8 -78 -18t-120 -10q-58 0 -97 17t-63 48t-34.5 75t-10.5 97v290h65v-269q0 -55 8 -93t26 -61.5t46.5 -34t69.5 -10.5q46 0 80 5t43 9v454h65v-499zM281 613q-24 0 -46.5 8t-40 24t-27 41t-8.5 60h43q0 -7 2.5 -20t10.5 -25.5t23.5 -22t42.5 -9.5t42.5 9.5 t23.5 22t10.5 25.5t2.5 20h43q1 -35 -8.5 -60t-27 -41t-40 -24t-46.5 -8z" />
<glyph unicode="&#x16e;" horiz-adv-x="680" d="M340 -15q-69 0 -117.5 21t-78.5 58t-43.5 86.5t-13.5 106.5v436h68v-427q0 -57 13.5 -98.5t37.5 -68.5t58 -40t76 -13t76 13t58 40t37.5 68.5t13.5 98.5v427h68v-436q0 -57 -13.5 -106.5t-43.5 -86.5t-78.5 -58t-117.5 -21zM436 832q0 -22 -7.5 -39.5t-20.5 -30 t-30.5 -19.5t-36.5 -7q-39 0 -67.5 26t-28.5 70q0 43 28.5 69t67.5 26q19 0 36.5 -7t30.5 -19.5t20.5 -30t7.5 -38.5zM398 832q0 28 -16.5 43.5t-40.5 15.5t-40.5 -15.5t-16.5 -43.5q0 -29 16.5 -44t40.5 -15t40.5 15t16.5 44z" />
<glyph unicode="&#x16f;" horiz-adv-x="569" d="M483 18q-29 -8 -78 -18t-120 -10q-58 0 -97 17t-63 48t-34.5 75t-10.5 97v290h65v-269q0 -55 8 -93t26 -61.5t46.5 -34t69.5 -10.5q46 0 80 5t43 9v454h65v-499zM377 676q0 -22 -7.5 -39.5t-20.5 -30t-30.5 -19.5t-36.5 -7q-39 0 -67.5 26t-28.5 70q0 43 28.5 69t67.5 26 q19 0 36.5 -7t30.5 -19.5t20.5 -30t7.5 -38.5zM339 676q0 28 -16.5 43.5t-40.5 15.5t-40.5 -15.5t-16.5 -43.5q0 -29 16.5 -44t40.5 -15t40.5 15t16.5 44z" />
<glyph unicode="&#x170;" horiz-adv-x="680" d="M340 -15q-69 0 -117.5 21t-78.5 58t-43.5 86.5t-13.5 106.5v436h68v-427q0 -57 13.5 -98.5t37.5 -68.5t58 -40t76 -13t76 13t58 40t37.5 68.5t13.5 98.5v427h68v-436q0 -57 -13.5 -106.5t-43.5 -86.5t-78.5 -58t-117.5 -21zM393 887l-126 -149l-39 29l119 162zM550 887 l-126 -149l-39 29l119 162z" />
<glyph unicode="&#x171;" horiz-adv-x="569" d="M483 18q-29 -8 -78 -18t-120 -10q-58 0 -97 17t-63 48t-34.5 75t-10.5 97v290h65v-269q0 -55 8 -93t26 -61.5t46.5 -34t69.5 -10.5q46 0 80 5t43 9v454h65v-499zM334 731l-126 -149l-39 29l119 162zM491 731l-126 -149l-39 29l119 162z" />
<glyph unicode="&#x172;" horiz-adv-x="680" d="M361 -14q-6 -1 -11 -1h-10q-69 0 -117.5 21t-78.5 58t-43.5 86.5t-13.5 106.5v436h68v-427q0 -57 13.5 -98.5t37.5 -68.5t58 -40t76 -13t76 13t58 40t37.5 68.5t13.5 98.5v427h68v-436q0 -78 -25.5 -141t-84.5 -97q-20 -11 -40.5 -24.5t-38.5 -32.5q-16 -17 -25.5 -31.5 t-9.5 -31.5q0 -18 12 -26t30 -8q9 0 19.5 1.5t18.5 4.5l5 -48q-8 -3 -23.5 -6t-30.5 -3q-54 0 -76 19.5t-22 50.5t17 55.5t42 46.5z" />
<glyph unicode="&#x173;" horiz-adv-x="569" d="M412 1q-26 -4 -57.5 -7.5t-69.5 -3.5q-58 0 -97 17t-63 48t-34.5 75t-10.5 97v290h65v-269q0 -55 8 -93t26 -61.5t46.5 -34t69.5 -10.5q46 0 80 5t43 9v454h65v-504q-12 -10 -24 -22.5t-26 -26.5q-16 -17 -25.5 -32.5t-9.5 -32.5q0 -18 12 -26t30 -8q9 0 19.5 1.5 t18.5 4.5l5 -48q-8 -3 -23.5 -6t-30.5 -3q-54 0 -76 19.5t-22 50.5q0 38 24.5 66t56.5 51z" />
<glyph unicode="&#x174;" horiz-adv-x="921" d="M491 608q48 -161 96.5 -291.5t94.5 -239.5q35 118 69.5 278t66.5 338h67q-18 -107 -36.5 -200.5t-38.5 -178t-42 -162t-48 -152.5h-73q-24 57 -47.5 114t-46.5 117.5t-46 126.5t-47 140q-24 -74 -47.5 -140t-46.5 -126.5t-46.5 -117.5t-47.5 -114h-72q-27 75 -49.5 152.5 t-42 162t-37 178t-35.5 200.5h70q15 -88 31 -172.5t33.5 -163.5t36 -149.5t36.5 -130.5q43 111 92 240.5t97 290.5h59zM356 740l-28 31l132 147l132 -147l-28 -31l-104 96z" />
<glyph unicode="&#x175;" horiz-adv-x="775" d="M419 517q9 -50 23.5 -106.5t32 -115t37 -115.5t39.5 -107q17 38 36 92.5t38 115t35.5 122t27.5 114.5h64q-36 -152 -78.5 -278t-93.5 -239h-61q-15 35 -31.5 78.5t-34 93t-34 104t-31.5 111.5q-15 -57 -31.5 -111.5t-34 -104t-34 -93t-31.5 -78.5h-62q-51 113 -93.5 239 t-78.5 278h69q11 -53 27.5 -114.5t35.5 -122t38.5 -114.5t36.5 -92q19 50 38.5 107t36.5 115t32 114.5t26 106.5h56zM285 584l-28 31l132 147l132 -147l-28 -31l-104 96z" />
<glyph unicode="&#x176;" horiz-adv-x="569" d="M251 0v285q-71 109 -130.5 210.5t-110.5 197.5h79q42 -88 92.5 -178.5t105.5 -172.5q53 82 104 172.5t94 178.5h74q-53 -95 -112 -197.5t-128 -208.5v-287h-68zM181 740l-28 31l132 147l132 -147l-28 -31l-104 96z" />
<glyph unicode="&#x177;" horiz-adv-x="474" d="M227 -11q-33 61 -63.5 127t-57 133.5t-48.5 135t-38 132.5h69q11 -48 28 -103.5t38.5 -114.5t47.5 -121t56 -122q22 62 39 117t31.5 109.5t28 111.5t28.5 123h65q-32 -145 -73 -282t-89 -251q-19 -45 -39 -77.5t-44.5 -53.5t-57 -31t-76.5 -10q-25 0 -45.5 6t-25.5 9 l13 54q4 -3 22.5 -8.5t38.5 -5.5q28 0 50.5 6t40.5 20.5t32.5 37.5t28.5 58zM144 584l-28 31l132 147l132 -147l-28 -31l-104 96z" />
<glyph unicode="&#x178;" horiz-adv-x="569" d="M251 0v285q-71 109 -130.5 210.5t-110.5 197.5h79q42 -88 92.5 -178.5t105.5 -172.5q53 82 104 172.5t94 178.5h74q-53 -95 -112 -197.5t-128 -208.5v-287h-68zM245 829q0 -22 -13 -35t-33 -13t-33 13t-13 35t13 35t33 13t33 -13t13 -35zM417 829q0 -22 -13 -35t-33 -13 t-33 13t-13 35t13 35t33 13t33 -13t13 -35z" />
<glyph unicode="&#x179;" horiz-adv-x="560" d="M510 631q-24 -28 -55.5 -68t-67.5 -87.5t-73.5 -101t-74 -108t-69 -107.5t-58.5 -100h408v-59h-482v51q22 43 52.5 94.5t65.5 106t73 109.5t75 105.5t70.5 93.5t61.5 74h-379v59h453v-62zM425 878l-171 -139l-33 38l158 152z" />
<glyph unicode="&#x17a;" horiz-adv-x="455" d="M407 464q-23 -26 -60 -72t-79 -102.5t-83 -118t-72 -116.5h303v-55h-378v47q26 49 64.5 108t79.5 116.5t80 108t66 82.5h-275v55h354v-53zM363 722l-171 -139l-33 38l158 152z" />
<glyph unicode="&#x17b;" horiz-adv-x="560" d="M510 631q-24 -28 -55.5 -68t-67.5 -87.5t-73.5 -101t-74 -108t-69 -107.5t-58.5 -100h408v-59h-482v51q22 43 52.5 94.5t65.5 106t73 109.5t75 105.5t70.5 93.5t61.5 74h-379v59h453v-62zM287 779q-20 0 -34 13.5t-14 36.5t14 36.5t34 13.5t34 -13.5t14 -36.5t-14 -36.5 t-34 -13.5z" />
<glyph unicode="&#x17c;" horiz-adv-x="455" d="M407 464q-23 -26 -60 -72t-79 -102.5t-83 -118t-72 -116.5h303v-55h-378v47q26 49 64.5 108t79.5 116.5t80 108t66 82.5h-275v55h354v-53zM225 623q-20 0 -34 13.5t-14 36.5t14 36.5t34 13.5t34 -13.5t14 -36.5t-14 -36.5t-34 -13.5z" />
<glyph unicode="&#x17d;" horiz-adv-x="560" d="M510 631q-24 -28 -55.5 -68t-67.5 -87.5t-73.5 -101t-74 -108t-69 -107.5t-58.5 -100h408v-59h-482v51q22 43 52.5 94.5t65.5 106t73 109.5t75 105.5t70.5 93.5t61.5 74h-379v59h453v-62zM287 825l104 96l28 -31l-132 -147l-132 147l28 31z" />
<glyph unicode="&#x17e;" horiz-adv-x="455" d="M407 464q-23 -26 -60 -72t-79 -102.5t-83 -118t-72 -116.5h303v-55h-378v47q26 49 64.5 108t79.5 116.5t80 108t66 82.5h-275v55h354v-53zM225 669l104 96l28 -31l-132 -147l-132 147l28 31z" />
<glyph unicode="&#x17f;" horiz-adv-x="247" d="M151 0h-65v573q0 101 46.5 152t143.5 51q42 0 68.5 -6.5t34.5 -11.5l-13 -56q-11 5 -32.5 10.5t-54.5 5.5q-69 0 -98.5 -35t-29.5 -112v-571z" />
<glyph unicode="&#x180;" horiz-adv-x="583" d="M151 680h194v-52h-194v-142q17 13 54.5 27.5t88.5 14.5q56 0 99.5 -20t73.5 -56t45.5 -85.5t15.5 -108.5q0 -63 -18.5 -113t-52 -85t-80 -53.5t-103.5 -18.5q-69 0 -114 9t-74 19v612h-80v52h80v84l65 12v-96zM151 61q15 -5 44.5 -9.5t77.5 -4.5q84 0 135 54.5t51 156.5 q0 43 -9 81.5t-29 67t-52.5 45.5t-80.5 17q-23 0 -44 -4.5t-39 -11.5t-31.5 -15t-22.5 -15v-362z" />
<glyph unicode="&#x181;" horiz-adv-x="712" d="M345 699q56 0 106.5 -9t88.5 -30t60.5 -55.5t22.5 -85.5q0 -56 -28.5 -95.5t-76.5 -54.5q30 -7 55 -20t44 -33.5t29.5 -50t10.5 -70.5q0 -98 -78 -149.5t-241 -51.5q-17 0 -39.5 1.5t-46 4t-44.5 6t-36 7.5v622q-49 -3 -71 -28t-22 -72q0 -5 0.5 -14t2.5 -18l-56 -8 q-2 8 -4 23.5t-2 24.5q0 51 21.5 81.5t63 47t102 22t138.5 5.5zM240 332v-273q15 -2 45 -4.5t61 -2.5q46 0 89.5 6t76.5 22t53 44t20 72q0 40 -14 66.5t-40 42t-63.5 21.5t-83.5 6h-144zM345 641q-28 0 -58 -0.5t-47 -2.5v-248h132q37 0 70 5.5t57.5 20t38.5 39t14 62.5 q0 34 -15 57.5t-42.5 38.5t-65.5 21.5t-84 6.5z" />
<glyph unicode="&#x182;" horiz-adv-x="612" d="M158 366v-306q19 -2 45.5 -4.5t64.5 -2.5q45 0 86 7t71.5 25t49 48t18.5 76q0 48 -17.5 78.5t-50 48t-78.5 24t-103 6.5h-86zM253 424q74 0 132 -12t97.5 -37.5t60.5 -66.5t21 -98q0 -109 -76 -162.5t-223 -53.5q-42 0 -90.5 4.5t-84.5 14.5v680h412v-59h-344v-210h95z " />
<glyph unicode="&#x183;" horiz-adv-x="583" d="M151 486q17 13 54.5 27.5t88.5 14.5q56 0 99.5 -20t73.5 -56t45.5 -85.5t15.5 -108.5q0 -63 -18.5 -113t-52 -85t-80 -53.5t-103.5 -18.5q-69 0 -114 9t-74 19v755h383v-55h-318v-230zM151 61q15 -5 44.5 -9.5t77.5 -4.5q84 0 135 54.5t51 156.5q0 43 -9 81.5t-29 67 t-52.5 45.5t-80.5 17q-23 0 -44 -4.5t-39 -11.5t-31.5 -15t-22.5 -15v-362z" />
<glyph unicode="&#x184;" horiz-adv-x="583" d="M151 486q17 13 54.5 27.5t88.5 14.5q56 0 99.5 -20t73.5 -56t45.5 -85.5t15.5 -108.5q0 -63 -18.5 -113t-52 -85t-80 -53.5t-103.5 -18.5q-69 0 -114 9t-74 19v635l-63 69q11 7 27 15t33.5 16t35 14.5t32.5 10.5v-290zM151 61q15 -5 44.5 -9.5t77.5 -4.5q84 0 135 54.5 t51 156.5q0 43 -9 81.5t-29 67t-52.5 45.5t-80.5 17q-23 0 -44 -4.5t-39 -11.5t-31.5 -15t-22.5 -15v-362z" />
<glyph unicode="&#x185;" horiz-adv-x="602" d="M273 375q-36 0 -64 -2t-45 -4v-309q19 -2 45.5 -4.5t64.5 -2.5q45 0 85.5 7t70.5 25t47.5 49.5t17.5 80.5q0 47 -16.5 78t-46 49t-70.5 25.5t-89 7.5zM164 428q17 2 48.5 4t56.5 2q150 0 223.5 -55t73.5 -164q0 -105 -70.5 -163t-224.5 -58q-42 0 -90.5 4.5t-84.5 14.5 v559l-66 69q13 8 29.5 16.5t34.5 16t36 14t34 10.5v-270z" />
<glyph unicode="&#x186;" horiz-adv-x="604" d="M213 46q67 0 115.5 22t80 61.5t46.5 95t15 122.5q0 69 -16.5 124.5t-48.5 94.5t-78.5 60t-106.5 21q-63 0 -106.5 -12.5t-66.5 -25.5l-18 57q8 5 25 12.5t42.5 14t59 11t72.5 4.5q67 0 124.5 -24t99.5 -70t66 -113.5t24 -154.5t-24 -154.5t-66.5 -113.5t-102 -69.5 t-130.5 -23.5q-35 0 -65.5 4.5t-55.5 11t-42.5 13.5t-26.5 12l19 58q23 -13 64 -25.5t101 -12.5z" />
<glyph unicode="&#x187;" horiz-adv-x="635" d="M395 647q-65 0 -113.5 -22t-81.5 -62t-49.5 -95t-16.5 -122q0 -69 16.5 -124.5t48.5 -94.5t78.5 -60t106.5 -21q66 0 110.5 12.5t67.5 25.5l19 -58q-7 -5 -24 -11.5t-43 -13.5t-60 -11.5t-76 -4.5q-67 0 -124.5 24t-100 70t-67 113.5t-24.5 154.5t26.5 154.5t70.5 113.5 t102 69.5t121 23.5q45 0 79 -8t54 -17q13 51 43.5 76t85.5 25q16 0 31 -2.5t24 -6.5l-11 -48q-6 2 -17.5 4.5t-25.5 2.5q-20 0 -33.5 -6.5t-21.5 -17.5t-13 -24.5t-9 -26.5l-14 -50q-6 3 -21.5 9.5t-37 13t-47.5 11t-53 4.5z" />
<glyph unicode="&#x188;" horiz-adv-x="490" d="M367 522q13 51 42.5 76t83.5 25q16 0 31 -2t24 -6l-11 -48q-6 2 -17.5 4.5t-25.5 2.5q-20 0 -33.5 -6.5t-22 -17.5t-13 -24.5t-6.5 -27.5l-8 -47q-20 8 -47 13.5t-65 5.5q-86 0 -130.5 -55.5t-44.5 -157.5q0 -46 10 -84.5t32.5 -66t58 -43t86.5 -15.5q42 0 70.5 9 t41.5 16l14 -55q-18 -10 -56.5 -19.5t-80.5 -9.5q-60 0 -106 19t-76.5 54.5t-46.5 85t-16 109.5q0 61 16.5 111t47.5 86t75 55.5t99 19.5q20 0 39.5 -2t34.5 -5z" />
<glyph unicode="&#x189;" horiz-adv-x="716" d="M654 347q0 -89 -28 -155t-78.5 -110t-120.5 -66t-154 -22q-42 0 -88 4.5t-81 13.5v323h-80v55h80v290q35 10 81 14.5t88 4.5q84 0 154 -22t120.5 -66t78.5 -110t28 -154zM172 60q6 -1 30.5 -4t78.5 -3q75 0 131 20.5t94 58.5t57 92.5t19 122.5t-19 122t-57 92t-94 58.5 t-131 20.5q-54 0 -78.5 -3t-30.5 -4v-243h132v-55h-132v-275z" />
<glyph unicode="&#x18a;" horiz-adv-x="784" d="M341 699q84 0 154 -22t120.5 -66t78.5 -110t28 -154q0 -89 -28 -155t-78.5 -110t-120.5 -66t-154 -22q-42 0 -88 4.5t-81 13.5v623q-49 -3 -71 -28t-22 -72q0 -5 0.5 -14t2.5 -18l-56 -8q-2 8 -4 23.5t-2 24.5q0 51 21.5 81.5t62.5 47t100.5 22t136.5 5.5zM345 640h-58 t-47 -2v-578q6 -1 30.5 -4t78.5 -3q75 0 131 20.5t94 58.5t57 92.5t19 122.5t-19 122t-57.5 92t-95.5 58.5t-133 20.5z" />
<glyph unicode="&#x18b;" horiz-adv-x="612" d="M368 366q-57 0 -103 -6.5t-78.5 -24t-50 -48t-17.5 -78.5q0 -46 18.5 -76t49 -48t71.5 -25.5t86 -7.5q38 0 64.5 2.5t45.5 4.5v307h-86zM454 424v210h-344v59h412v-681q-36 -10 -84.5 -14.5t-90.5 -4.5q-147 0 -223 54t-76 163q0 58 21 99t60.5 66.5t97.5 37t132 11.5h95 z" />
<glyph unicode="&#x18c;" horiz-adv-x="583" d="M432 716h-318v55h383v-755q-29 -10 -74 -19t-114 -9q-57 0 -103.5 18.5t-80 53.5t-52 85t-18.5 113q0 59 15.5 108.5t45.5 85.5t73.5 56t99.5 20q51 0 88.5 -14.5t54.5 -27.5v230zM432 423q-9 7 -22.5 15t-31.5 15t-39 11.5t-44 4.5q-48 0 -80.5 -17t-52.5 -45.5t-29 -67 t-9 -81.5q0 -102 51 -156.5t135 -54.5q48 0 77.5 4.5t44.5 9.5v362z" />
<glyph unicode="&#x18d;" horiz-adv-x="572" d="M517 289q0 -40 -12.5 -77t-35 -68t-53.5 -55.5t-68 -39.5q42 -23 62 -48.5t20 -67.5q0 -35 -17 -58t-43 -36.5t-58 -18.5t-63 -5q-26 0 -49.5 3t-42 7t-32 8t-19.5 7l14 53q8 -5 41 -14t89 -9q24 0 45 3t36.5 10t24.5 19t9 30t-8 31t-23.5 24t-38 21.5t-50.5 23.5 q-34 16 -68 36.5t-61 50.5t-44 70t-17 95q0 47 13 91.5t40.5 79t71.5 55t106 20.5q63 0 107 -22t71.5 -56.5t40 -77.5t12.5 -85zM293 75q30 13 58 32.5t49.5 46t34.5 60t13 74.5q0 33 -8 65.5t-27 58.5t-50 42.5t-77 16.5q-81 0 -121.5 -50t-40.5 -135q0 -51 16.5 -86 t41.5 -59t55 -39t56 -27z" />
<glyph unicode="&#x18e;" horiz-adv-x="555" d="M39 0v59h358v276h-296v58h296v241h-332v59h400v-693h-426z" />
<glyph unicode="&#x18f;" horiz-adv-x="694" d="M131 303q0 -56 12 -103t37 -81.5t62.5 -54t88.5 -19.5q58 0 100.5 23.5t70 61t42 83t17.5 90.5h-430zM561 361q-4 142 -70.5 214t-178.5 72q-58 0 -106.5 -12.5t-76.5 -32.5l-22 58q23 15 74.5 31.5t132.5 16.5q71 0 129.5 -23.5t100.5 -69t65 -112t23 -152.5 q0 -92 -24 -160.5t-65 -114.5t-96.5 -68.5t-118.5 -22.5q-129 0 -198.5 86.5t-69.5 260.5q0 7 0.5 15.5t1.5 13.5h499z" />
<glyph unicode="&#x190;" horiz-adv-x="552" d="M316 649q-79 0 -119 -33.5t-40 -84.5q0 -39 17.5 -65t45 -41t61.5 -21.5t67 -6.5h59v-58h-46q-49 0 -92 -6.5t-74.5 -23t-49.5 -45.5t-18 -75q0 -40 14.5 -67.5t40.5 -45t62 -25t79 -7.5q33 0 61 5t50.5 12.5t39.5 15t27 13.5l22 -59q-10 -6 -28 -13.5t-43.5 -15 t-58 -12.5t-69.5 -5q-59 0 -108.5 11t-85 35.5t-55.5 63t-20 94.5q0 43 14 75.5t37 55t54 36.5t64 20q-34 7 -60 22.5t-43 36.5t-26 46t-9 52q0 45 17 78t47 54.5t72 32t93 10.5q60 0 110 -14.5t76 -31.5l-24 -57q-29 20 -71 32t-90 12z" />
<glyph unicode="&#x191;" horiz-adv-x="520" d="M158 -26q0 -34 -4.5 -63.5t-18.5 -51t-39 -34t-67 -12.5q-17 0 -31.5 3t-22.5 6l9 54q5 -2 15 -4t22 -2q38 0 53.5 22.5t15.5 70.5v730h395v-59h-327v-244h290v-59h-290v-357z" />
<glyph unicode="&#x192;" d="M151 5q0 -98 -37 -145t-125 -47q-11 0 -27.5 3t-24.5 7l9 53q7 -2 19 -4t23 -2q59 0 78.5 33t19.5 99v571q0 101 46.5 152t143.5 51q42 0 68.5 -6.5t34.5 -11.5l-13 -56q-11 5 -32.5 10.5t-54.5 5.5q-69 0 -98.5 -35t-29.5 -112v-54h208v-55h-208v-457z" />
<glyph unicode="&#x193;" horiz-adv-x="663" d="M388 708q49 0 82.5 -8t53.5 -17q13 51 43.5 75.5t87.5 24.5q16 0 31 -2t24 -6l-11 -48q-6 2 -17.5 4.5t-25.5 2.5q-20 0 -33.5 -7t-21.5 -17.5t-13 -24.5t-9 -27l-14 -50q-7 4 -22.5 10.5t-37.5 13t-50 11t-61 4.5q-57 0 -105 -19t-82.5 -57t-53.5 -94t-19 -130 q0 -69 16 -124.5t48.5 -95t80.5 -60.5t111 -21q51 0 85.5 5.5t46.5 10.5v266h68v-309q-19 -8 -74.5 -20.5t-136.5 -12.5q-68 0 -126 24t-100.5 69.5t-66.5 113t-24 154.5t26 154.5t70.5 113t103.5 69.5t126 24z" />
<glyph unicode="&#x194;" horiz-adv-x="624" d="M312 102q-11 -17 -23 -36t-21.5 -39t-16 -40.5t-6.5 -40.5q0 -29 16 -50.5t51 -21.5t51 21.5t16 50.5q0 20 -6.5 40.5t-16 40.5t-21.5 39t-23 36zM361 135q13 -23 27.5 -46t26.5 -46.5t20 -48t8 -49.5q0 -17 -4.5 -39t-18.5 -42t-39.5 -34t-67.5 -14t-67.5 14t-39.5 34 t-18.5 42t-4.5 39q0 25 8 49t20 47.5t26.5 47t27.5 46.5l10 17q-66 112 -133 250.5t-132 290.5h76q53 -123 109 -245t118 -236q64 118 120.5 240.5t108.5 240.5h72q-27 -68 -60 -139.5t-68 -141.5t-70.5 -135.5t-67.5 -120.5z" />
<glyph unicode="&#x195;" horiz-adv-x="884" d="M475 227q0 -49 8 -83t24.5 -55t41.5 -30.5t58 -9.5t57.5 9.5t41 30.5t25 55t8.5 83v290h65v-296q0 -50 -9 -92.5t-31.5 -73.5t-60.5 -48.5t-96 -17.5t-96 17.5t-60.5 48.5t-31.5 73.5t-9 92.5v45q0 55 -6.5 93.5t-22 62.5t-42.5 35t-69 11q-18 0 -37 -3t-36 -6.5 t-29.5 -7.5t-16.5 -6v-445h-65v764l65 12v-274q32 12 64 18.5t65 6.5q58 0 96 -17.5t60 -49t30.5 -76t8.5 -97.5v-60z" />
<glyph unicode="&#x196;" horiz-adv-x="362" d="M88 693h68v-528q0 -37 7 -60.5t19.5 -36.5t31 -17.5t41.5 -4.5q26 0 47.5 5.5t30.5 10.5l16 -56q-10 -5 -39.5 -13t-64.5 -8q-38 0 -67 9t-49 30t-30.5 56t-10.5 88v525z" />
<glyph unicode="&#x197;" horiz-adv-x="308" d="M120 0v334h-96v54h96v305h68v-305h96v-54h-96v-334h-68z" />
<glyph unicode="&#x198;" horiz-adv-x="650" d="M399 640q27 29 56.5 48t71.5 19q41 0 65 -16.5t36 -29.5l-34 -46q-11 12 -28 23t-40 11q-20 0 -39 -10t-45 -36q-65 -66 -114.5 -123t-94.5 -111q45 -27 98 -72.5t103 -97.5t91.5 -104.5t63.5 -94.5h-76q-34 52 -76.5 103t-89.5 96t-95.5 82t-93.5 62v-343h-68v693h68 v-329q22 27 51 62t61.5 71.5t65.5 73.5t63 69z" />
<glyph unicode="&#x199;" horiz-adv-x="495" d="M86 616q0 34 4 63.5t17 51t37.5 33.5t66.5 12q17 0 31 -2.5t22 -5.5l-9 -53q-12 5 -36 5q-38 0 -53 -22.5t-15 -70.5v-343q25 24 56 55t62.5 63t59.5 62t48 53h78q-23 -24 -52 -54t-60.5 -62.5t-62.5 -63.5l-56 -56q31 -21 66.5 -54t70 -71.5t65 -79t51.5 -76.5h-77 q-24 40 -54.5 78.5t-64 72.5t-67 62t-63.5 47v-260h-65v616z" />
<glyph unicode="&#x19a;" horiz-adv-x="260" d="M226 -10q-33 2 -57.5 9.5t-41 22.5t-25 39.5t-8.5 61.5v253h-77v53h77v335l65 12v-347h93v-53h-93v-251q0 -24 4.5 -38.5t13.5 -23t23.5 -12.5t34.5 -7z" />
<glyph unicode="&#x19b;" horiz-adv-x="492" d="M260 455q-68 -128 -110.5 -246.5t-64.5 -208.5h-66q12 49 33.5 113.5t50 135t62 142t68.5 135.5q-6 17 -12 32t-12 29l-111 -37l-19 53l107 36q-11 24 -21.5 39.5t-22 25t-26 13t-34.5 3.5q-14 0 -23.5 -2.5t-14.5 -4.5l-11 54q8 3 24 6t38 3q32 0 56 -10t41.5 -26 t30.5 -37.5t23 -43.5l124 42l19 -53l-122 -41q69 -173 117.5 -322t86.5 -285h-68q-26 105 -63.5 223t-79.5 232z" />
<glyph unicode="&#x19c;" horiz-adv-x="965" d="M494 57q-10 -8 -27.5 -20.5t-41.5 -24t-54.5 -19.5t-66.5 -8q-66 0 -108 19.5t-66 55t-33.5 85t-9.5 109.5v439h68v-409q0 -63 6.5 -108t23.5 -74.5t47 -43t78 -13.5q30 0 55 6.5t44.5 16.5t34 21t22.5 19q-11 32 -15 70t-4 80v435h68v-422q0 -58 7 -100.5t24 -70.5 t47 -41.5t76 -13.5q22 0 43.5 2t40.5 5t33 6t21 6v629h68v-674q-29 -10 -84 -22t-125 -12q-115 0 -172 72z" />
<glyph unicode="&#x19d;" horiz-adv-x="709" d="M157 -26q0 -34 -4 -63.5t-17.5 -51t-38 -34t-66.5 -12.5q-17 0 -32.5 3t-23.5 6l9 54q5 -2 15 -4t22 -2q38 0 53.5 22.5t15.5 70.5v730h54q51 -57 109.5 -131.5t114.5 -152t104.5 -151.5t79.5 -129v564h67v-693h-57q-19 35 -48.5 82t-64.5 100.5t-74 110t-77.5 110 t-75 100.5t-65.5 81v-610z" />
<glyph unicode="&#x19e;" horiz-adv-x="568" d="M86 499q29 8 78 18t120 10q59 0 98.5 -17t63 -48.5t33.5 -75.5t10 -97v-474h-65v453q0 55 -7.5 93t-25 62t-46 34.5t-71.5 10.5q-46 0 -79.5 -5t-43.5 -9v-454h-65v499z" />
<glyph unicode="&#x19f;" horiz-adv-x="774" d="M712 347q0 -89 -26 -157t-70.5 -113.5t-103.5 -68.5t-125 -23t-125 23t-103.5 68.5t-70.5 113.5t-26 157t26 156.5t70.5 113t103.5 68.5t125 23t125 -23t103.5 -68.5t70.5 -113t26 -156.5zM387 46q55 0 100 19t77.5 54.5t52 86.5t22.5 115h-505q3 -64 22.5 -115 t52.5 -86.5t78 -54.5t100 -19zM387 647q-54 0 -99 -18.5t-77.5 -53t-52 -84t-23.5 -112.5h504q-4 63 -23.5 112.5t-52 84t-77.5 53t-99 18.5z" />
<glyph unicode="&#x1a0;" horiz-adv-x="774" d="M712 347q0 -89 -26 -157t-70.5 -113.5t-103.5 -68.5t-125 -23t-125 23t-103.5 68.5t-70.5 113.5t-26 157t26 156.5t70.5 113t103.5 68.5t125 23q57 0 109.5 -17.5t94.5 -52.5q29 26 41 55.5t12 71.5q0 9 -1 20.5t-2 14.5h65q1 -6 1.5 -14t0.5 -13q0 -46 -15.5 -91.5 t-61.5 -82.5q38 -45 59.5 -108t21.5 -144zM640 347q0 70 -18 125.5t-51 94.5t-79.5 59.5t-104.5 20.5t-104.5 -20.5t-79.5 -59.5t-51 -94.5t-18 -125.5t18 -125.5t51 -94.5t79.5 -60t104.5 -21t104.5 21t79.5 60t51 94.5t18 125.5z" />
<glyph unicode="&#x1a1;" horiz-adv-x="587" d="M527 258q0 -61 -17.5 -111t-49 -85t-74.5 -54.5t-95 -19.5t-95 19.5t-74.5 54.5t-49 85t-17.5 111t17.5 111t49 85.5t74.5 55t95 19.5q48 0 88.5 -17t71.5 -48q28 26 40 55t12 71q0 9 -1 20.5t-2 14.5h65q1 -6 1.5 -14t0.5 -13q0 -47 -16.5 -94t-65.5 -84q20 -32 31 -73 t11 -89zM458 258q0 97 -45 154.5t-122 57.5t-122 -57.5t-45 -154.5t45 -154t122 -57t122 57t45 154z" />
<glyph unicode="&#x1a2;" horiz-adv-x="1002" d="M374 708q54 0 103 -17t90 -51q8 7 22 18.5t34.5 22.5t47.5 18.5t60 7.5q57 0 92 -17.5t55 -50t27 -79t7 -104.5v-456h-68v450q0 50 -5 87.5t-18.5 62t-36.5 36.5t-60 12q-21 0 -39 -5.5t-32.5 -13t-26 -16t-18.5 -14.5q36 -45 57 -108t21 -144q0 -89 -25 -157t-68 -113.5 t-99.5 -68.5t-119.5 -23t-119.5 23t-99.5 68.5t-68 113.5t-25 157t25 156.5t68 113t99.5 68.5t119.5 23zM374 46q55 0 99.5 21t76 60t48 94.5t16.5 125.5t-16.5 125.5t-48 94.5t-76 59.5t-99.5 20.5q-56 0 -100 -20.5t-75.5 -59.5t-48 -94.5t-16.5 -125.5t16.5 -125.5 t48 -94.5t75.5 -60t100 -21z" />
<glyph unicode="&#x1a3;" horiz-adv-x="799" d="M517 258q0 -61 -17 -111t-48 -85t-73 -54.5t-93 -19.5t-93 19.5t-73 54.5t-48 85t-17 111t17 111t48 85.5t73 55t93 19.5q81 0 140 -50q19 15 52 32t76 17q53 0 85.5 -16t50 -45.5t23.5 -71t6 -92.5v-488h-65v479q0 43 -4.5 76t-16 55.5t-31.5 34t-52 11.5q-30 0 -51 -11 t-34 -22q25 -35 38.5 -80.5t13.5 -99.5zM448 258q0 48 -11.5 87.5t-32.5 67t-51 42.5t-67 15q-38 0 -68 -15t-51 -42.5t-32 -67t-11 -87.5q0 -97 43.5 -154t118.5 -57t118.5 57t43.5 154z" />
<glyph unicode="&#x1a4;" horiz-adv-x="675" d="M341 699q152 0 224.5 -56t72.5 -159q0 -59 -21 -100.5t-60 -67t-95.5 -37t-127.5 -11.5h-94v-268h-68v635q-49 -3 -71 -28t-22 -72q0 -5 0.5 -14t2.5 -18l-56 -8q-2 8 -4 23.5t-2 24.5q0 51 21.5 81.5t62.5 47t100.5 22t136.5 5.5zM345 640h-58t-47 -2v-311h86 q55 0 99.5 6.5t76 24t48.5 48.5t17 79q0 46 -18.5 76t-49.5 47.5t-71 24.5t-83 7z" />
<glyph unicode="&#x1a5;" horiz-adv-x="583" d="M151 502q64 25 127 25q56 0 102 -19t79 -54t51 -85t18 -112q0 -59 -15.5 -108.5t-45.5 -85t-73.5 -55.5t-99.5 -20q-51 0 -88.5 14.5t-54.5 27.5v-215h-65v801q0 34 4 63.5t17 51t37.5 33.5t66.5 12q17 0 31 -2.5t22 -5.5l-9 -53q-12 5 -36 5q-38 0 -53 -22.5t-15 -70.5 v-125zM151 93q9 -7 22.5 -15t31.5 -15t39 -11.5t44 -4.5q48 0 80.5 16.5t52.5 45t29 67t9 81.5q0 101 -51.5 156t-135.5 55q-17 0 -36.5 -3t-36.5 -6.5t-30.5 -7.5t-17.5 -6v-352z" />
<glyph unicode="&#x1a6;" horiz-adv-x="618" d="M158 776v-86q17 2 48.5 4t56.5 2q289 0 289 -211q0 -78 -41 -123t-108 -65q16 -20 44 -58.5t61 -91t69 -118t68 -138.5h-73q-35 75 -69.5 136.5t-66 110.5t-58 85t-44.5 60q-32 -3 -64 -3h-112v-280h-68v776h68zM267 637q-36 0 -64 -2t-45 -4v-293h94q47 0 89 4.5t73 20 t49 44.5t18 79q0 46 -18 75.5t-47.5 46.5t-68 23t-80.5 6z" />
<glyph unicode="&#x1a7;" horiz-adv-x="517" d="M278 44q35 0 64 5t52 12.5t40 15.5t27 14l22 -59q-10 -6 -28.5 -14t-44.5 -15.5t-59.5 -12.5t-73.5 -5q-114 0 -177.5 47t-63.5 141q0 48 16 81t43.5 56t64 40t77.5 34q34 14 63 27t50 29t33 38t12 54q0 31 -11.5 53t-31.5 36.5t-47.5 21t-60.5 6.5q-48 0 -89.5 -12 t-70.5 -32l-24 57q13 9 32.5 17t43.5 14.5t51.5 10.5t55.5 4q106 0 163.5 -46t57.5 -135q0 -39 -12.5 -68t-36.5 -51.5t-58.5 -40.5t-77.5 -35q-34 -14 -65 -26.5t-55 -30t-38 -43t-14 -63.5q0 -66 45 -95.5t126 -29.5z" />
<glyph unicode="&#x1a8;" horiz-adv-x="428" d="M236 46q30 0 53.5 4t40.5 9t27.5 10t13.5 7l17 -59q-12 -6 -48.5 -17.5t-104.5 -11.5q-96 0 -145.5 36t-49.5 106q0 36 13.5 61t35.5 42.5t50 30t58 24.5q29 12 51 22t36.5 21.5t22 26.5t7.5 36t-9 35.5t-24 24t-34.5 14t-41.5 4.5q-55 0 -83.5 -10t-40.5 -16l-15 58 q14 7 50 16t89 9q83 0 129 -37.5t46 -103.5q0 -33 -12 -56t-32 -39.5t-46.5 -29t-54.5 -24.5q-36 -15 -60.5 -26t-40 -23t-22 -27t-6.5 -36q0 -44 37 -62.5t93 -18.5z" />
<glyph unicode="&#x1a9;" horiz-adv-x="552" d="M356 364q-34 -41 -66.5 -79t-63.5 -75t-60 -74t-56 -77h401v-59h-473v58q18 30 45 65.5t59 75t66.5 81t67.5 83.5q-32 41 -65.5 81.5t-63.5 77.5t-55.5 68.5t-40.5 54.5v48h458v-59h-369q12 -19 35.5 -48t53.5 -65t63 -76.5t64 -80.5z" />
<glyph unicode="&#x1aa;" horiz-adv-x="299" d="M148 546q-19 -19 -41.5 -28t-46.5 -9q-28 0 -51 10t-39 28t-25 42.5t-9 52.5q0 31 10 56t28 42.5t42.5 26.5t52.5 9q43 0 71 -13.5t44 -36.5t22.5 -53t6.5 -63v-662q0 -24 4.5 -38.5t13.5 -23t23.5 -12.5t34.5 -7l-9 -54q-33 2 -57.5 9.5t-41 22.5t-25 39.5t-8.5 61.5 v600zM70 564q28 0 44.5 13.5t33.5 33.5v22q0 45 -22 66t-57 21q-38 0 -55 -22.5t-17 -55.5q0 -32 17.5 -55t55.5 -23z" />
<glyph unicode="&#x1ab;" horiz-adv-x="387" d="M254 49q44 0 72 5.5t36 8.5q2 -12 4 -37.5t2 -51.5q0 -34 -4 -63.5t-17 -51t-37.5 -33.5t-66.5 -12q-17 0 -31 2.5t-22 5.5l9 53q12 -5 36 -5q40 0 55.5 22.5t15.5 70.5q0 11 -0.5 21t-1.5 15q-11 -2 -30 -4t-33 -2q-45 0 -75.5 12.5t-49 37t-26.5 62t-8 88.5v476l65 12 v-164h206v-55h-206v-275q0 -44 7.5 -71t21.5 -42t34 -20t44 -5z" />
<glyph unicode="&#x1ac;" horiz-adv-x="563" d="M177 634q-49 0 -73.5 -26t-24.5 -73q0 -5 0.5 -14t2.5 -18l-56 -8q-2 8 -4 23.5t-2 24.5q0 44 14.5 73t40 46t59.5 24t74 7h337v-59h-222v-634h-68v634h-78z" />
<glyph unicode="&#x1ad;" horiz-adv-x="387" d="M355 517v-55h-208v-275q0 -44 7.5 -71.5t21.5 -42.5t34 -20t44 -5q41 0 66 9.5t39 17.5l16 -54q-14 -9 -49 -20.5t-76 -11.5q-48 0 -80.5 12.5t-52 38t-27.5 63.5t-8 90v380q0 101 46.5 152t143.5 51q42 0 68.5 -6.5t34.5 -11.5l-13 -56q-11 5 -32.5 10.5t-54.5 5.5 q-69 0 -98.5 -35t-29.5 -112v-54h208z" />
<glyph unicode="&#x1ae;" horiz-adv-x="548" d="M308 -37q0 -48 15.5 -70.5t53.5 -22.5q12 0 22 2t15 4l9 -54q-8 -3 -22.5 -6t-31.5 -3q-42 0 -67 12.5t-39 34t-18.5 51t-4.5 63.5v660h-222v59h512v-59h-222v-671z" />
<glyph unicode="&#x1af;" horiz-adv-x="693" d="M589 693q12 0 23.5 3.5t20.5 12t14.5 22.5t5.5 35q0 9 -1 20.5t-2 14.5h65q1 -6 1.5 -14t0.5 -13q0 -23 -6 -46t-20 -42.5t-38 -32t-60 -14.5v-382q0 -57 -13.5 -106.5t-43.5 -86.5t-78.5 -58t-117.5 -21t-117.5 21t-78.5 58t-43.5 86.5t-13.5 106.5v436h68v-427 q0 -57 13.5 -98.5t37.5 -68.5t58 -40t76 -13t76 13t58 40t37.5 68.5t13.5 98.5v427h64z" />
<glyph unicode="&#x1b0;" horiz-adv-x="584" d="M483 18q-29 -8 -78 -18t-120 -10q-58 0 -97 17t-63 48t-34.5 75t-10.5 97v290h65v-269q0 -55 8 -93t26 -61.5t46.5 -34t69.5 -10.5q46 0 80 5t43 9v454h61q12 0 23.5 3.5t20.5 12t14.5 22.5t5.5 35q0 9 -1 20.5t-2 14.5h65q1 -6 1.5 -14t0.5 -13q0 -23 -6 -46t-20 -42.5 t-38 -32t-60 -14.5v-445z" />
<glyph unicode="&#x1b1;" horiz-adv-x="780" d="M390 -15q-65 0 -122.5 21.5t-101 64.5t-69 107t-25.5 148q0 57 13.5 104.5t33.5 86.5t44.5 68.5t47.5 49.5h-155v58h254v-44q-35 -26 -65 -58.5t-52.5 -73t-35.5 -88.5t-13 -105q0 -65 18 -116.5t50.5 -87.5t77.5 -55t100 -19t100 19t77.5 55t50.5 87.5t18 116.5 q0 57 -13 105t-35.5 88.5t-52.5 73t-65 58.5v44h254v-58h-155q22 -20 47 -49.5t45 -68.5t33.5 -86.5t13.5 -104.5q0 -84 -25.5 -148t-69 -107t-101.5 -64.5t-122 -21.5z" />
<glyph unicode="&#x1b2;" horiz-adv-x="681" d="M606 362q0 -37 -3.5 -79t-13.5 -84t-29 -80.5t-49.5 -68t-75 -47.5t-105.5 -18q-67 0 -113.5 21t-75 57t-41.5 84.5t-13 103.5v442h68v-432q0 -55 13 -95.5t35.5 -67t53.5 -39.5t67 -13q51 0 90.5 17t67 53.5t41.5 94.5t14 140q0 148 -37.5 217t-116.5 69q-11 0 -20 -1 t-14 -2l-6 54q7 2 22.5 4t32.5 2q61 0 101.5 -27.5t64 -73t33 -105.5t9.5 -126z" />
<glyph unicode="&#x1b3;" horiz-adv-x="654" d="M286 343q17 34 37.5 72.5t41 76.5t41 74t37.5 66q10 18 20 31.5t22 22.5t28 13t38 4q21 0 38 -5t30.5 -12.5t23 -16.5t15.5 -16l-34 -45q-11 13 -28.5 24.5t-40.5 11.5q-20 0 -32 -8t-27 -34q-17 -29 -39.5 -67.5t-46.5 -81t-48 -86t-43 -80.5v-287h-68v285 q-69 106 -129.5 207.5t-111.5 200.5h79q43 -90 93 -178.5t104 -171.5z" />
<glyph unicode="&#x1b4;" horiz-adv-x="553" d="M419 398q-27 -114 -59.5 -219t-70.5 -195q-19 -45 -38.5 -77.5t-44.5 -53.5t-57.5 -31t-76.5 -10q-25 0 -45.5 6t-25.5 9l13 53q4 -3 22.5 -9t38.5 -6q57 0 91.5 27t61.5 96q-33 61 -64 127t-57.5 134t-48.5 135.5t-38 132.5h69q11 -48 28 -103.5t38.5 -114.5t47.5 -121 t56 -122q16 48 30 92t25.5 87t22 85.5t21.5 88.5q6 27 14.5 49t22.5 37t34 23.5t49 8.5q23 0 40.5 -5t31.5 -10l-15 -52q-7 4 -17.5 7.5t-30.5 3.5q-32 0 -45.5 -17.5t-22.5 -55.5z" />
<glyph unicode="&#x1b5;" horiz-adv-x="560" d="M510 631q-35 -40 -83 -102.5t-101 -136.5h160v-55h-199q-50 -72 -95.5 -143.5t-79.5 -134.5h408v-59h-482v51q31 60 77 135t97 151h-127v55h165q51 73 99.5 136.5t86.5 105.5h-379v59h453v-62z" />
<glyph unicode="&#x1b6;" horiz-adv-x="455" d="M407 464q-22 -24 -56.5 -67t-74.5 -96h126v-53h-165q-35 -48 -67 -98t-57 -95h303v-55h-378v47q23 44 56.5 96t70.5 105h-98v53h136q36 49 69 91t56 70h-275v55h354v-53z" />
<glyph unicode="&#x1b7;" horiz-adv-x="545" d="M496 189q0 -56 -20 -94.5t-55.5 -63t-85 -35.5t-108.5 -11q-38 0 -70 5t-57.5 12.5t-43.5 15t-28 13.5l22 59q10 -6 27 -13.5t39.5 -15t50.5 -12.5t61 -5q43 0 79 7.5t62 25t40.5 45t14.5 67.5q0 46 -18.5 75.5t-50 46.5t-73.5 23.5t-90 6.5h-7v43q28 28 59 63t60 69.5 t53.5 65.5t41.5 52h-341v59h424v-41q-18 -26 -43 -57.5t-54 -66t-60 -70t-61 -68.5q41 -3 82.5 -14.5t74.5 -35t54 -60.5t21 -91z" />
<glyph unicode="&#x1b8;" horiz-adv-x="546" d="M49 189q0 54 21 91t54 60.5t74.5 35t82.5 14.5q-30 33 -61 68.5t-60 70t-53.5 66t-42.5 57.5v41h423v-59h-338q16 -21 41 -52t54 -65.5t60 -69.5t59 -63v-43h-10q-48 0 -90 -6.5t-73.5 -23.5t-50 -46.5t-18.5 -75.5q0 -40 14.5 -67.5t40.5 -45t62 -25t79 -7.5q34 0 62 5 t50.5 12.5t39 15.5t26.5 14l23 -58q-27 -15 -76 -31.5t-124 -16.5q-59 0 -108.5 11t-85 35.5t-55.5 63t-20 94.5z" />
<glyph unicode="&#x1b9;" horiz-adv-x="459" d="M332 167h-25q-34 0 -69.5 -5t-64 -20.5t-46.5 -43.5t-18 -74q0 -72 45.5 -111t136.5 -39q54 0 92 9.5t57 19.5l17 -56q-20 -11 -63.5 -21.5t-102.5 -10.5q-115 0 -182.5 52.5t-67.5 156.5q0 52 18.5 88.5t49 59.5t70 33.5t81.5 12.5q-26 29 -54.5 64.5t-54.5 71 t-48.5 68.5t-37.5 58v37h371v-55h-293q14 -22 35.5 -52t47 -63.5t53 -67.5t53.5 -63v-49z" />
<glyph unicode="&#x1ba;" horiz-adv-x="452" d="M209 277q103 -13 151.5 -46t48.5 -103q0 -45 -17 -74t-46 -47t-67 -29.5t-80 -22.5q-29 -8 -52 -14.5t-39.5 -15.5t-25.5 -21t-9 -31t4.5 -31.5t6.5 -16.5l-55 -12q-5 8 -10.5 22t-5.5 40q0 33 13 54.5t35 35.5t50 22.5t58 16.5q34 9 65 17.5t55 22t38 33.5t14 51 q0 54 -50 76.5t-151 27.5v50q62 53 106 100t70 80h-291v55h365v-45q-34 -46 -76.5 -93.5t-104.5 -101.5z" />
<glyph unicode="&#x1bb;" horiz-adv-x="525" d="M440 523q0 -49 -23 -91t-55 -80h95v-54h-148l-41 -39q-26 -25 -50.5 -50t-43 -50t-30 -49t-11.5 -48v-3h326v-59h-400q0 2 -0.5 7.5t-0.5 16.5q0 44 15 82t38.5 71.5t53 63.5t59.5 57h-130v54h187q37 37 62 77t25 91q0 34 -10 58.5t-28 40t-43 23t-54 7.5q-32 0 -57.5 -8 t-45 -18.5t-33 -22t-19.5 -17.5l-34 46q6 7 22.5 20.5t41 26.5t56 22.5t68.5 9.5q101 0 154.5 -49t53.5 -136z" />
<glyph unicode="&#x1bc;" horiz-adv-x="539" d="M194 634q-1 -19 -2.5 -48.5t-4 -61t-5 -60t-5.5 -45.5q85 -5 146 -22t99 -45.5t56 -68.5t18 -90q0 -46 -15 -84t-47 -65.5t-82 -43t-120 -15.5q-31 0 -60.5 4.5t-54 10.5t-42 12.5t-24.5 11.5l17 58q20 -11 62.5 -24t99.5 -13q54 0 91 11t60 31t33 46.5t10 58.5 q0 41 -17 72.5t-54.5 52.5t-97.5 32t-145 11q5 42 9 78.5t6.5 69.5t4.5 64t3 62h-98v59h433v-59h-274z" />
<glyph unicode="&#x1bd;" horiz-adv-x="490" d="M445 146q0 -34 -13 -63t-40 -50t-69 -33t-100 -12q-26 0 -52 2.5t-49.5 7t-42 10t-28.5 11.5l17 58q16 -8 52 -19.5t102 -11.5q75 0 115 25.5t40 75.5q0 33 -12 55t-39 35.5t-71 19t-108 5.5h-46q7 57 11 103.5t7 96.5h-81v55h384v-55h-245q-3 -35 -6 -74.5t-7 -71.5h19 q61 0 109.5 -8.5t82.5 -28.5t52 -52.5t18 -80.5z" />
<glyph unicode="&#x1be;" horiz-adv-x="449" d="M143 462v-50q0 -29 9.5 -48.5t26 -34t38 -24.5t44.5 -19q28 -11 54.5 -23.5t47.5 -30.5t33.5 -42.5t12.5 -59.5q0 -70 -53 -106t-148 -36q-71 0 -108 11.5t-49 17.5l17 59q3 -2 13.5 -6.5t28 -10t42 -9.5t56.5 -4q59 0 96.5 18.5t37.5 62.5q0 21 -7.5 36t-24 27.5 t-42 24.5t-61.5 27q-28 12 -51.5 23.5t-41 30t-27 46t-9.5 71.5v256l65 12v-164h206v-55h-206z" />
<glyph unicode="&#x1bf;" horiz-adv-x="566" d="M274 527q115 0 176 -60.5t61 -170.5q0 -79 -30 -135.5t-80.5 -96.5t-115.5 -67.5t-134 -47.5v-134h-65v671q29 14 77.5 27.5t110.5 13.5zM273 468q-45 0 -76.5 -8.5t-45.5 -14.5v-434q45 14 96 34t94.5 52.5t72 81t28.5 119.5q0 81 -44.5 125.5t-124.5 44.5z" />
<glyph unicode="&#x1c0;" horiz-adv-x="262" d="M100 783h62v-968h-62v968z" />
<glyph unicode="&#x1c1;" horiz-adv-x="446" d="M100 783h62v-968h-62v968zM284 783h62v-968h-62v968z" />
<glyph unicode="&#x1c2;" horiz-adv-x="569" d="M253 783h62v-358h204v-57h-204v-132h204v-57h-204v-364h-62v364h-203v57h203v132h-203v57h203v358z" />
<glyph unicode="&#x1c3;" horiz-adv-x="274" d="M172 500q0 -43 -1.5 -80.5t-4.5 -72.5t-6.5 -68t-7.5 -66h-30q-9 67 -14.5 134t-5.5 153v193h70v-193zM192 43q0 -23 -14.5 -39t-40.5 -16t-40.5 16t-14.5 39t14.5 39t40.5 16t40.5 -16t14.5 -39z" />
<glyph unicode="&#x1c4;" horiz-adv-x="1262" d="M640 347q0 -89 -28 -155t-78.5 -110t-120.5 -66t-154 -22q-42 0 -88 4.5t-81 13.5v668q35 10 81 14.5t88 4.5q84 0 154 -22t120.5 -66t78.5 -110t28 -154zM158 60q6 -1 30.5 -4t78.5 -3q75 0 131 20.5t94 58.5t57 92.5t19 122.5t-19 122t-57 92t-94 58.5t-131 20.5 q-54 0 -78.5 -3t-30.5 -4v-573zM1212 631q-24 -28 -55.5 -68t-67.5 -87.5t-73.5 -101t-74 -108t-69 -107.5t-58.5 -100h408v-59h-482v51q22 43 52.5 94.5t65.5 106t73 109.5t75 105.5t70.5 93.5t61.5 74h-379v59h453v-62zM989 825l104 96l28 -31l-132 -147l-132 147l28 31z " />
<glyph unicode="&#x1c5;" horiz-adv-x="1157" d="M640 347q0 -89 -28 -155t-78.5 -110t-120.5 -66t-154 -22q-42 0 -88 4.5t-81 13.5v668q35 10 81 14.5t88 4.5q84 0 154 -22t120.5 -66t78.5 -110t28 -154zM158 60q6 -1 30.5 -4t78.5 -3q75 0 131 20.5t94 58.5t57 92.5t19 122.5t-19 122t-57 92t-94 58.5t-131 20.5 q-54 0 -78.5 -3t-30.5 -4v-573zM1109 464q-23 -26 -60 -72t-79 -102.5t-83 -118t-72 -116.5h303v-55h-378v47q26 49 64.5 108t79.5 116.5t80 108t66 82.5h-275v55h354v-53zM927 669l104 96l28 -31l-132 -147l-132 147l28 31z" />
<glyph unicode="&#x1c6;" horiz-adv-x="1038" d="M497 16q-29 -10 -74 -19t-114 -9q-57 0 -103.5 18.5t-80 53.5t-52 85t-18.5 113q0 59 15.5 108.5t45.5 85.5t73.5 56t99.5 20q51 0 88.5 -14.5t54.5 -27.5v278l65 12v-760zM432 423q-9 7 -22.5 15t-31.5 15t-39 11.5t-44 4.5q-48 0 -80.5 -17t-52.5 -45.5t-29 -67 t-9 -81.5q0 -102 51 -156.5t135 -54.5q48 0 77.5 4.5t44.5 9.5v362zM990 464q-23 -26 -60 -72t-79 -102.5t-83 -118t-72 -116.5h303v-55h-378v47q26 49 64.5 108t79.5 116.5t80 108t66 82.5h-275v55h354v-53zM808 669l104 96l28 -31l-132 -147l-132 147l28 31z" />
<glyph unicode="&#x1c7;" horiz-adv-x="1017" d="M484 59v-59h-394v693h68v-634h326zM930 218q0 -50 -10 -92.5t-34.5 -74t-65 -49t-101.5 -17.5q-36 0 -66 6.5t-53 15.5t-38.5 19t-23.5 18l32 55q9 -8 22.5 -17.5t31.5 -17.5t40 -13t48 -5q77 0 113.5 40.5t36.5 138.5v468h68v-475z" />
<glyph unicode="&#x1c8;" horiz-adv-x="739" d="M484 59v-59h-394v693h68v-634h326zM491 -187q-11 0 -27.5 3t-24.5 7l9 53q7 -2 19 -4t23 -2q59 0 78.5 33t19.5 99v515h65v-512q0 -98 -37 -145t-125 -47zM668 673q0 -23 -14 -36.5t-34 -13.5t-34 13.5t-14 36.5t14 36.5t34 13.5t34 -13.5t14 -36.5z" />
<glyph unicode="&#x1c9;" horiz-adv-x="492" d="M217 -9q-33 1 -57.5 8.5t-41 23t-25 40t-8.5 61.5v640l65 12v-650q0 -24 4.5 -38.5t13.5 -23t23.5 -12.5t34.5 -7zM244 -187q-11 0 -27.5 3t-24.5 7l9 53q7 -2 19 -4t23 -2q59 0 78.5 33t19.5 99v515h65v-512q0 -98 -37 -145t-125 -47zM421 673q0 -23 -14 -36.5 t-34 -13.5t-34 13.5t-14 36.5t14 36.5t34 13.5t34 -13.5t14 -36.5z" />
<glyph unicode="&#x1ca;" horiz-adv-x="1196" d="M562 0q-19 35 -48.5 82t-64.5 100.5t-74 110t-77.5 110t-75 100.5t-65.5 81v-584h-67v693h54q51 -57 109.5 -131.5t114.5 -152t104.5 -151.5t79.5 -129v564h67v-693h-57zM1109 218q0 -50 -10 -92.5t-34.5 -74t-65 -49t-101.5 -17.5q-36 0 -66 6.5t-53 15.5t-38.5 19 t-23.5 18l32 55q9 -8 22.5 -17.5t31.5 -17.5t40 -13t48 -5q77 0 113.5 40.5t36.5 138.5v468h68v-475z" />
<glyph unicode="&#x1cb;" horiz-adv-x="946" d="M562 0q-19 35 -48.5 82t-64.5 100.5t-74 110t-77.5 110t-75 100.5t-65.5 81v-584h-67v693h54q51 -57 109.5 -131.5t114.5 -152t104.5 -151.5t79.5 -129v564h67v-693h-57zM698 -187q-11 0 -27.5 3t-24.5 7l9 53q7 -2 19 -4t23 -2q59 0 78.5 33t19.5 99v515h65v-512 q0 -98 -37 -145t-125 -47zM875 673q0 -23 -14 -36.5t-34 -13.5t-34 13.5t-14 36.5t14 36.5t34 13.5t34 -13.5t14 -36.5z" />
<glyph unicode="&#x1cc;" horiz-adv-x="806" d="M86 499q29 8 78 18t120 10q59 0 98.5 -17t63 -48.5t33.5 -75.5t10 -97v-289h-65v268q0 55 -7.5 93t-25 62t-46 34.5t-71.5 10.5q-46 0 -79.5 -5t-43.5 -9v-454h-65v499zM558 -187q-11 0 -27.5 3t-24.5 7l9 53q7 -2 19 -4t23 -2q59 0 78.5 33t19.5 99v515h65v-512 q0 -98 -37 -145t-125 -47zM735 673q0 -23 -14 -36.5t-34 -13.5t-34 13.5t-14 36.5t14 36.5t34 13.5t34 -13.5t14 -36.5z" />
<glyph unicode="&#x1cd;" horiz-adv-x="641" d="M556 0q-19 51 -36 98t-33 92h-337q-17 -45 -34 -92t-35 -98h-71q40 108 75 201.5t68.5 177t66.5 160.5t70 154h60q37 -77 70 -154t66.5 -160.5t68.5 -177t76 -201.5h-75zM318 615q-38 -86 -73.5 -175t-73.5 -192h295q-38 103 -74 192t-74 175zM320 825l104 96l28 -31 l-132 -147l-132 147l28 31z" />
<glyph unicode="&#x1ce;" horiz-adv-x="509" d="M249 47q38 0 66.5 2.5t48.5 6.5v182q-11 5 -35 10.5t-66 5.5q-24 0 -50 -3.5t-48 -15t-36 -31.5t-14 -53q0 -29 9.5 -49t27 -32t42 -17.5t55.5 -5.5zM243 529q51 0 86.5 -14.5t57.5 -40t32 -60.5t10 -76v-326q-10 -3 -29 -6.5t-44 -7.5t-55.5 -6.5t-62.5 -2.5 q-41 0 -75.5 9t-60 28.5t-40 50t-14.5 74.5q0 42 16 72t45 49.5t69 28.5t87 9q14 0 29.5 -1.5t30 -4t25 -5t14.5 -4.5v32q0 27 -4 52.5t-17.5 46t-38 33t-64.5 12.5q-57 0 -85 -8t-41 -13l-9 57q17 8 52.5 15t85.5 7zM260 669l104 96l28 -31l-132 -147l-132 147l28 31z" />
<glyph unicode="&#x1cf;" horiz-adv-x="248" d="M90 693h68v-693h-68v693zM125 825l104 96l28 -31l-132 -147l-132 147l28 31z" />
<glyph unicode="&#x1d0;" horiz-adv-x="237" d="M151 0h-65v517h65v-517zM119 669l104 96l28 -31l-132 -147l-132 147l28 31z" />
<glyph unicode="&#x1d1;" horiz-adv-x="774" d="M712 347q0 -89 -26 -157t-70.5 -113.5t-103.5 -68.5t-125 -23t-125 23t-103.5 68.5t-70.5 113.5t-26 157t26 156.5t70.5 113t103.5 68.5t125 23t125 -23t103.5 -68.5t70.5 -113t26 -156.5zM640 347q0 70 -18 125.5t-51 94.5t-79.5 59.5t-104.5 20.5t-104.5 -20.5 t-79.5 -59.5t-51 -94.5t-18 -125.5t18 -125.5t51 -94.5t79.5 -60t104.5 -21t104.5 21t79.5 60t51 94.5t18 125.5zM387 825l104 96l28 -31l-132 -147l-132 147l28 31z" />
<glyph unicode="&#x1d2;" horiz-adv-x="582" d="M527 258q0 -61 -17.5 -111t-49 -85t-74.5 -54.5t-95 -19.5t-95 19.5t-74.5 54.5t-49 85t-17.5 111t17.5 111t49 85.5t74.5 55t95 19.5t95 -19.5t74.5 -55t49 -85.5t17.5 -111zM458 258q0 97 -45 154.5t-122 57.5t-122 -57.5t-45 -154.5t45 -154t122 -57t122 57t45 154z M291 669l104 96l28 -31l-132 -147l-132 147l28 31z" />
<glyph unicode="&#x1d3;" horiz-adv-x="680" d="M340 -15q-69 0 -117.5 21t-78.5 58t-43.5 86.5t-13.5 106.5v436h68v-427q0 -57 13.5 -98.5t37.5 -68.5t58 -40t76 -13t76 13t58 40t37.5 68.5t13.5 98.5v427h68v-436q0 -57 -13.5 -106.5t-43.5 -86.5t-78.5 -58t-117.5 -21zM340 825l104 96l28 -31l-132 -147l-132 147 l28 31z" />
<glyph unicode="&#x1d4;" horiz-adv-x="569" d="M483 18q-29 -8 -78 -18t-120 -10q-58 0 -97 17t-63 48t-34.5 75t-10.5 97v290h65v-269q0 -55 8 -93t26 -61.5t46.5 -34t69.5 -10.5q46 0 80 5t43 9v454h65v-499zM281 669l104 96l28 -31l-132 -147l-132 147l28 31z" />
<glyph unicode="&#x1d5;" horiz-adv-x="680" d="M340 -15q-69 0 -117.5 21t-78.5 58t-43.5 86.5t-13.5 106.5v436h68v-427q0 -57 13.5 -98.5t37.5 -68.5t58 -40t76 -13t76 13t58 40t37.5 68.5t13.5 98.5v427h68v-436q0 -57 -13.5 -106.5t-43.5 -86.5t-78.5 -58t-117.5 -21zM215 953h251v-54h-251v54zM287 798 q0 -22 -13 -35t-33 -13t-33 13t-13 35t13 35t33 13t33 -13t13 -35zM486 798q0 -22 -13 -35t-33 -13t-33 13t-13 35t13 35t33 13t33 -13t13 -35z" />
<glyph unicode="&#x1d6;" horiz-adv-x="569" d="M483 18q-29 -8 -78 -18t-120 -10q-58 0 -97 17t-63 48t-34.5 75t-10.5 97v290h65v-269q0 -55 8 -93t26 -61.5t46.5 -34t69.5 -10.5q46 0 80 5t43 9v454h65v-499zM155 797h251v-54h-251v54zM227 642q0 -22 -13 -35t-33 -13t-33 13t-13 35t13 35t33 13t33 -13t13 -35z M426 642q0 -22 -13 -35t-33 -13t-33 13t-13 35t13 35t33 13t33 -13t13 -35z" />
<glyph unicode="&#x1d7;" horiz-adv-x="680" d="M340 -15q-69 0 -117.5 21t-78.5 58t-43.5 86.5t-13.5 106.5v436h68v-427q0 -57 13.5 -98.5t37.5 -68.5t58 -40t76 -13t76 13t58 40t37.5 68.5t13.5 98.5v427h68v-436q0 -57 -13.5 -106.5t-43.5 -86.5t-78.5 -58t-117.5 -21zM431 805q0 22 13 35t33 13t33 -13t13 -35 t-13 -35t-33 -13t-33 13t-13 35zM159 805q0 22 13 35t33 13t33 -13t13 -35t-13 -35t-33 -13t-33 13t-13 35zM435 914l-105 -124l-37 30l96 136z" />
<glyph unicode="&#x1d8;" horiz-adv-x="569" d="M483 18q-29 -8 -78 -18t-120 -10q-58 0 -97 17t-63 48t-34.5 75t-10.5 97v290h65v-269q0 -55 8 -93t26 -61.5t46.5 -34t69.5 -10.5q46 0 80 5t43 9v454h65v-499zM383 803l-105 -124l-37 30l96 136zM339 642q0 22 13 35t33 13t33 -13t13 -35t-13 -35t-33 -13t-33 13 t-13 35zM130 642q0 22 13 35t33 13t33 -13t13 -35t-13 -35t-33 -13t-33 13t-13 35z" />
<glyph unicode="&#x1d9;" horiz-adv-x="680" d="M340 -15q-69 0 -117.5 21t-78.5 58t-43.5 86.5t-13.5 106.5v436h68v-427q0 -57 13.5 -98.5t37.5 -68.5t58 -40t76 -13t76 13t58 40t37.5 68.5t13.5 98.5v427h68v-436q0 -57 -13.5 -106.5t-43.5 -86.5t-78.5 -58t-117.5 -21zM431 805q0 22 13 35t33 13t33 -13t13 -35 t-13 -35t-33 -13t-33 13t-13 35zM159 805q0 22 13 35t33 13t33 -13t13 -35t-13 -35t-33 -13t-33 13t-13 35zM340 823l-119 98l22 35l97 -68l97 68l22 -35z" />
<glyph unicode="&#x1da;" horiz-adv-x="569" d="M483 18q-29 -8 -78 -18t-120 -10q-58 0 -97 17t-63 48t-34.5 75t-10.5 97v290h65v-269q0 -55 8 -93t26 -61.5t46.5 -34t69.5 -10.5q46 0 80 5t43 9v454h65v-499zM339 642q0 22 13 35t33 13t33 -13t13 -35t-13 -35t-33 -13t-33 13t-13 35zM130 642q0 22 13 35t33 13 t33 -13t13 -35t-13 -35t-33 -13t-33 13t-13 35zM280 691l-119 98l22 35l97 -68l97 68l22 -35z" />
<glyph unicode="&#x1db;" horiz-adv-x="680" d="M340 -15q-69 0 -117.5 21t-78.5 58t-43.5 86.5t-13.5 106.5v436h68v-427q0 -57 13.5 -98.5t37.5 -68.5t58 -40t76 -13t76 13t58 40t37.5 68.5t13.5 98.5v427h68v-436q0 -57 -13.5 -106.5t-43.5 -86.5t-78.5 -58t-117.5 -21zM251 805q0 -22 -13 -35t-33 -13t-33 13t-13 35 t13 35t33 13t33 -13t13 -35zM523 805q0 -22 -13 -35t-33 -13t-33 13t-13 35t13 35t33 13t33 -13t13 -35zM293 956l96 -136l-37 -30l-105 124z" />
<glyph unicode="&#x1dc;" horiz-adv-x="569" d="M483 18q-29 -8 -78 -18t-120 -10q-58 0 -97 17t-63 48t-34.5 75t-10.5 97v290h65v-269q0 -55 8 -93t26 -61.5t46.5 -34t69.5 -10.5q46 0 80 5t43 9v454h65v-499zM224 845l96 -136l-37 -30l-105 124zM222 642q0 -22 -13 -35t-33 -13t-33 13t-13 35t13 35t33 13t33 -13 t13 -35zM431 642q0 -22 -13 -35t-33 -13t-33 13t-13 35t13 35t33 13t33 -13t13 -35z" />
<glyph unicode="&#x1dd;" horiz-adv-x="548" d="M493 259q0 -68 -19.5 -118.5t-51 -84.5t-72 -50.5t-83.5 -16.5q-95 0 -151.5 62t-56.5 191q0 8 0.5 16t1.5 15h363q-3 95 -47 146t-140 51q-53 0 -84 -10t-45 -17l-12 56q14 8 52.5 19t90.5 11q68 0 116 -20t79 -56t45 -85.5t14 -108.5zM126 218q2 -81 38 -126t102 -45 q34 0 62 14t48.5 37.5t32 54.5t13.5 65h-296z" />
<glyph unicode="&#x1de;" horiz-adv-x="641" d="M556 0q-19 51 -36 98t-33 92h-337q-17 -45 -34 -92t-35 -98h-71q40 108 75 201.5t68.5 177t66.5 160.5t70 154h60q37 -77 70 -154t66.5 -160.5t68.5 -177t76 -201.5h-75zM318 615q-38 -86 -73.5 -175t-73.5 -192h295q-38 103 -74 192t-74 175zM195 953h251v-54h-251v54z M267 798q0 -22 -13 -35t-33 -13t-33 13t-13 35t13 35t33 13t33 -13t13 -35zM466 798q0 -22 -13 -35t-33 -13t-33 13t-13 35t13 35t33 13t33 -13t13 -35z" />
<glyph unicode="&#x1df;" horiz-adv-x="509" d="M249 47q38 0 66.5 2.5t48.5 6.5v182q-11 5 -35 10.5t-66 5.5q-24 0 -50 -3.5t-48 -15t-36 -31.5t-14 -53q0 -29 9.5 -49t27 -32t42 -17.5t55.5 -5.5zM243 529q51 0 86.5 -14.5t57.5 -40t32 -60.5t10 -76v-326q-10 -3 -29 -6.5t-44 -7.5t-55.5 -6.5t-62.5 -2.5 q-41 0 -75.5 9t-60 28.5t-40 50t-14.5 74.5q0 42 16 72t45 49.5t69 28.5t87 9q14 0 29.5 -1.5t30 -4t25 -5t14.5 -4.5v32q0 27 -4 52.5t-17.5 46t-38 33t-64.5 12.5q-57 0 -85 -8t-41 -13l-9 57q17 8 52.5 15t85.5 7zM134 797h251v-54h-251v54zM206 642q0 -22 -13 -35 t-33 -13t-33 13t-13 35t13 35t33 13t33 -13t13 -35zM405 642q0 -22 -13 -35t-33 -13t-33 13t-13 35t13 35t33 13t33 -13t13 -35z" />
<glyph unicode="&#x1e0;" horiz-adv-x="641" d="M556 0q-19 51 -36 98t-33 92h-337q-17 -45 -34 -92t-35 -98h-71q40 108 75 201.5t68.5 177t66.5 160.5t70 154h60q37 -77 70 -154t66.5 -160.5t68.5 -177t76 -201.5h-75zM318 615q-38 -86 -73.5 -175t-73.5 -192h295q-38 103 -74 192t-74 175zM195 953h251v-54h-251v54z M367 798q0 -22 -13 -35t-33 -13t-33 13t-13 35t13 35t33 13t33 -13t13 -35z" />
<glyph unicode="&#x1e1;" horiz-adv-x="509" d="M249 47q38 0 66.5 2.5t48.5 6.5v182q-11 5 -35 10.5t-66 5.5q-24 0 -50 -3.5t-48 -15t-36 -31.5t-14 -53q0 -29 9.5 -49t27 -32t42 -17.5t55.5 -5.5zM243 529q51 0 86.5 -14.5t57.5 -40t32 -60.5t10 -76v-326q-10 -3 -29 -6.5t-44 -7.5t-55.5 -6.5t-62.5 -2.5 q-41 0 -75.5 9t-60 28.5t-40 50t-14.5 74.5q0 42 16 72t45 49.5t69 28.5t87 9q14 0 29.5 -1.5t30 -4t25 -5t14.5 -4.5v32q0 27 -4 52.5t-17.5 46t-38 33t-64.5 12.5q-57 0 -85 -8t-41 -13l-9 57q17 8 52.5 15t85.5 7zM134 797h251v-54h-251v54zM306 642q0 -22 -13 -35 t-33 -13t-33 13t-13 35t13 35t33 13t33 -13t13 -35z" />
<glyph unicode="&#x1e2;" horiz-adv-x="915" d="M464 0v190h-287q-26 -48 -51.5 -95t-49.5 -95h-70q54 107 107.5 201t106.5 178.5t106 162t107 151.5h417v-59h-318v-241h282v-58h-282v-276h344v-59h-412zM464 637q-69 -93 -132 -189.5t-122 -199.5h254v389zM429 805v55h265v-55h-265z" />
<glyph unicode="&#x1e3;" horiz-adv-x="854" d="M728 300q-2 81 -38 126t-102 45q-35 0 -62.5 -14t-48 -37.5t-32 -54.5t-13.5 -65h296zM252 -11q-44 0 -81.5 9t-64.5 28.5t-42.5 50t-15.5 74.5q0 42 16 72t45 49.5t69 28.5t87 9q14 0 29.5 -1.5t30 -4t25 -5t14.5 -4.5v32q0 27 -4 52.5t-17.5 46t-38 33t-64.5 12.5 q-54 0 -84 -7.5t-43 -12.5l-8 56q17 8 53 15t85 7q71 0 111.5 -26.5t57.5 -71.5q33 49 79 73.5t96 24.5q95 0 151.5 -62t56.5 -191q0 -8 -0.5 -16t-1.5 -15h-363q3 -95 47 -146t140 -51q53 0 84 10t45 17l12 -56q-14 -8 -52.5 -19t-90.5 -11q-57 0 -101 14t-77 46 q-11 -9 -27.5 -19.5t-39.5 -19.5t-52 -15t-66 -6zM365 238q-11 5 -35.5 10.5t-66.5 5.5q-24 0 -50 -3.5t-48 -15t-36 -31.5t-14 -53q0 -29 10 -49t28.5 -32t43.5 -17.5t55 -5.5q62 0 98 16.5t50 29.5q-16 26 -25 61.5t-10 83.5zM285 649v55h265v-55h-265z" />
<glyph unicode="&#x1e4;" horiz-adv-x="690" d="M522 206h-116v54h116v93h68v-93h80v-54h-80v-187q-19 -8 -74.5 -20.5t-136.5 -12.5q-68 0 -126 24t-100.5 69.5t-66.5 113t-24 154.5t26 154.5t70.5 113t103.5 69.5t126 24q77 0 127 -16.5t73 -31.5l-23 -58q-28 20 -76 32.5t-104 12.5q-52 0 -98 -19t-80 -57t-53.5 -94 t-19.5 -130q0 -69 16 -124.5t48.5 -95t80.5 -60.5t111 -21q51 0 85.5 5.5t46.5 10.5v144z" />
<glyph unicode="&#x1e5;" horiz-adv-x="587" d="M423 60q-6 -5 -18 -11.5t-29.5 -13.5t-40 -11.5t-50.5 -4.5q-45 0 -87 14t-73.5 44t-50.5 77.5t-19 115.5q0 55 17 102t48.5 81.5t77 54t102.5 19.5q72 0 115.5 -9.5t71.5 -18.5v-199h83v-53h-83v-220q0 -116 -60 -165.5t-181 -49.5q-50 0 -90.5 7.5t-69.5 17.5l13 59 q24 -11 65.5 -19t83.5 -8q92 0 133.5 35.5t41.5 121.5v34zM422 247h-123v53h123v154q-17 5 -44 9.5t-77 4.5q-42 0 -74.5 -14.5t-55.5 -41t-35 -63t-12 -80.5q0 -51 14 -87.5t36.5 -59.5t51.5 -33.5t59 -10.5q44 0 80.5 13t56.5 30v126z" />
<glyph unicode="&#x1e6;" horiz-adv-x="658" d="M522 328h68v-309q-19 -8 -74.5 -20.5t-136.5 -12.5q-68 0 -126 24t-100.5 69.5t-66.5 113t-24 154.5t26 154.5t70.5 113t103.5 69.5t126 24q77 0 127 -16.5t73 -31.5l-23 -58q-28 20 -76 32.5t-104 12.5q-52 0 -98 -19t-80 -57t-53.5 -94t-19.5 -130q0 -69 16 -124.5 t48.5 -95t80.5 -60.5t111 -21q51 0 85.5 5.5t46.5 10.5v266zM367 825l104 96l28 -31l-132 -147l-132 147l28 31z" />
<glyph unicode="&#x1e7;" horiz-adv-x="573" d="M423 60q-6 -5 -18 -11.5t-29.5 -13.5t-40 -11.5t-50.5 -4.5q-45 0 -87 14t-73.5 44t-50.5 77.5t-19 115.5q0 55 17 102t48.5 81.5t77 54t102.5 19.5q72 0 115.5 -9.5t71.5 -18.5v-472q0 -116 -60 -165.5t-181 -49.5q-50 0 -90.5 7.5t-69.5 17.5l13 59q24 -11 65.5 -19 t83.5 -8q92 0 133.5 35.5t41.5 121.5v34zM422 454q-17 5 -44 9.5t-77 4.5q-42 0 -74.5 -14.5t-55.5 -41t-35 -63t-12 -80.5q0 -51 14 -87.5t36.5 -59.5t51.5 -33.5t59 -10.5q44 0 80.5 13t56.5 30v333zM305 669l104 96l28 -31l-132 -147l-132 147l28 31z" />
<glyph unicode="&#x1e8;" horiz-adv-x="599" d="M513 0q-34 52 -76.5 103t-89.5 96t-95.5 82t-93.5 62v-343h-68v693h68v-323q38 34 84.5 78.5t92 89.5t85.5 86t64 69h82q-29 -31 -70 -73.5t-87 -87.5t-91.5 -88.5t-81.5 -76.5q29 -18 62.5 -44.5t68 -58t68 -66t63 -69.5t53 -68t38.5 -61h-76zM311 825l104 96l28 -31 l-132 -147l-132 147l28 31z" />
<glyph unicode="&#x1e9;" horiz-adv-x="495" d="M224 281q31 -21 66.5 -54t70 -71.5t65 -79t51.5 -76.5h-77q-24 40 -54.5 78.5t-64 72.5t-67 62t-63.5 47v-260h-65v764l65 12v-492q25 24 56 55t62.5 63t59.5 62t48 53h78q-23 -24 -52 -54t-60.5 -62.5t-62.5 -63.5zM164 825l-119 98l22 35l97 -68l97 68l22 -35z" />
<glyph unicode="&#x1ea;" horiz-adv-x="774" d="M640 347q0 70 -18 125.5t-51 94.5t-79.5 59.5t-104.5 20.5t-104.5 -20.5t-79.5 -59.5t-51 -94.5t-18 -125.5t18 -125.5t51 -94.5t79.5 -60t104.5 -21t104.5 21t79.5 60t51 94.5t18 125.5zM387 -15q-66 0 -125 23t-103.5 68.5t-70.5 113.5t-26 157t26 156.5t70.5 113 t103.5 68.5t125 23t125 -23t103.5 -68.5t70.5 -113t26 -156.5q0 -63 -13.5 -115.5t-37.5 -94t-57 -72t-73 -49.5q-20 -10 -41 -22.5t-39 -31.5q-16 -17 -25.5 -31.5t-9.5 -31.5q0 -18 12 -26t30 -8q9 0 19.5 1.5t18.5 4.5l5 -48q-8 -3 -23.5 -6t-30.5 -3q-54 0 -76 19.5 t-22 50.5t17 55.5t42 46.5q-6 -1 -11 -1h-10z" />
<glyph unicode="&#x1eb;" horiz-adv-x="582" d="M409 19q-18 -11 -39 -23.5t-39 -31.5q-16 -17 -25.5 -32.5t-9.5 -32.5q0 -18 12 -26t30 -8q9 0 19.5 1.5t18.5 4.5l5 -48q-8 -3 -23.5 -6t-30.5 -3q-54 0 -76 19.5t-22 50.5t17.5 56t44.5 48q-52 0 -95 19.5t-74.5 54.5t-49 85t-17.5 111t17.5 111t49 85.5t74.5 55 t95 19.5t95 -19.5t74.5 -55t49 -85.5t17.5 -111q0 -84 -32 -145.5t-86 -93.5zM458 258q0 97 -45 154.5t-122 57.5t-122 -57.5t-45 -154.5t45 -154t122 -57t122 57t45 154z" />
<glyph unicode="&#x1ec;" horiz-adv-x="774" d="M640 347q0 70 -18 125.5t-51 94.5t-79.5 59.5t-104.5 20.5t-104.5 -20.5t-79.5 -59.5t-51 -94.5t-18 -125.5t18 -125.5t51 -94.5t79.5 -60t104.5 -21t104.5 21t79.5 60t51 94.5t18 125.5zM387 -15q-66 0 -125 23t-103.5 68.5t-70.5 113.5t-26 157t26 156.5t70.5 113 t103.5 68.5t125 23t125 -23t103.5 -68.5t70.5 -113t26 -156.5q0 -63 -13.5 -115.5t-37.5 -94t-57 -72t-73 -49.5q-20 -10 -41 -22.5t-39 -31.5q-16 -17 -25.5 -31.5t-9.5 -31.5q0 -18 12 -26t30 -8q9 0 19.5 1.5t18.5 4.5l5 -48q-8 -3 -23.5 -6t-30.5 -3q-54 0 -76 19.5 t-22 50.5t17 55.5t42 46.5q-6 -1 -11 -1h-10zM255 805v55h265v-55h-265z" />
<glyph unicode="&#x1ed;" horiz-adv-x="582" d="M409 19q-18 -11 -39 -23.5t-39 -31.5q-16 -17 -25.5 -32.5t-9.5 -32.5q0 -18 12 -26t30 -8q9 0 19.5 1.5t18.5 4.5l5 -48q-8 -3 -23.5 -6t-30.5 -3q-54 0 -76 19.5t-22 50.5t17.5 56t44.5 48q-52 0 -95 19.5t-74.5 54.5t-49 85t-17.5 111t17.5 111t49 85.5t74.5 55 t95 19.5t95 -19.5t74.5 -55t49 -85.5t17.5 -111q0 -84 -32 -145.5t-86 -93.5zM458 258q0 97 -45 154.5t-122 57.5t-122 -57.5t-45 -154.5t45 -154t122 -57t122 57t45 154zM159 649v55h265v-55h-265z" />
<glyph unicode="&#x1ee;" horiz-adv-x="545" d="M496 189q0 -56 -20 -94.5t-55.5 -63t-85 -35.5t-108.5 -11q-38 0 -70 5t-57.5 12.5t-43.5 15t-28 13.5l22 59q10 -6 27 -13.5t39.5 -15t50.5 -12.5t61 -5q43 0 79 7.5t62 25t40.5 45t14.5 67.5q0 46 -18.5 75.5t-50 46.5t-73.5 23.5t-90 6.5h-7v43q28 28 59 63t60 69.5 t53.5 65.5t41.5 52h-341v59h424v-41q-18 -26 -43 -57.5t-54 -66t-60 -70t-61 -68.5q41 -3 82.5 -14.5t74.5 -35t54 -60.5t21 -91zM268 825l104 96l28 -31l-132 -147l-132 147l28 31z" />
<glyph unicode="&#x1ef;" horiz-adv-x="454" d="M125 216q26 29 53.5 63t53 67.5t47 63.5t35.5 52h-293v55h371v-37q-15 -25 -37.5 -58t-48.5 -68.5t-54.5 -71t-54.5 -64.5q42 -2 81.5 -12.5t70 -33.5t49 -59.5t18.5 -88.5q0 -104 -67.5 -156.5t-182.5 -52.5q-59 0 -102.5 10.5t-63.5 21.5l17 56q19 -10 57 -19.5 t92 -9.5q91 0 136.5 39t45.5 111q0 46 -18 74t-46.5 43.5t-64 20.5t-69.5 5h-25v49zM201 669l104 96l28 -31l-132 -147l-132 147l28 31z" />
<glyph unicode="&#x1f0;" horiz-adv-x="237" d="M-11 -187q-11 0 -27.5 3t-24.5 7l9 53q7 -2 19 -4t23 -2q59 0 78.5 33t19.5 99v515h65v-512q0 -98 -37 -145t-125 -47zM119 669l104 96l28 -31l-132 -147l-132 147l28 31z" />
<glyph unicode="&#x1f1;" horiz-adv-x="1262" d="M640 347q0 -89 -28 -155t-78.5 -110t-120.5 -66t-154 -22q-42 0 -88 4.5t-81 13.5v668q35 10 81 14.5t88 4.5q84 0 154 -22t120.5 -66t78.5 -110t28 -154zM158 60q6 -1 30.5 -4t78.5 -3q75 0 131 20.5t94 58.5t57 92.5t19 122.5t-19 122t-57 92t-94 58.5t-131 20.5 q-54 0 -78.5 -3t-30.5 -4v-573zM1212 631q-24 -28 -55.5 -68t-67.5 -87.5t-73.5 -101t-74 -108t-69 -107.5t-58.5 -100h408v-59h-482v51q22 43 52.5 94.5t65.5 106t73 109.5t75 105.5t70.5 93.5t61.5 74h-379v59h453v-62z" />
<glyph unicode="&#x1f2;" horiz-adv-x="1157" d="M640 347q0 -89 -28 -155t-78.5 -110t-120.5 -66t-154 -22q-42 0 -88 4.5t-81 13.5v668q35 10 81 14.5t88 4.5q84 0 154 -22t120.5 -66t78.5 -110t28 -154zM158 60q6 -1 30.5 -4t78.5 -3q75 0 131 20.5t94 58.5t57 92.5t19 122.5t-19 122t-57 92t-94 58.5t-131 20.5 q-54 0 -78.5 -3t-30.5 -4v-573zM1109 464q-23 -26 -60 -72t-79 -102.5t-83 -118t-72 -116.5h303v-55h-378v47q26 49 64.5 108t79.5 116.5t80 108t66 82.5h-275v55h354v-53z" />
<glyph unicode="&#x1f3;" horiz-adv-x="1038" d="M497 16q-29 -10 -74 -19t-114 -9q-57 0 -103.5 18.5t-80 53.5t-52 85t-18.5 113q0 59 15.5 108.5t45.5 85.5t73.5 56t99.5 20q51 0 88.5 -14.5t54.5 -27.5v278l65 12v-760zM432 423q-9 7 -22.5 15t-31.5 15t-39 11.5t-44 4.5q-48 0 -80.5 -17t-52.5 -45.5t-29 -67 t-9 -81.5q0 -102 51 -156.5t135 -54.5q48 0 77.5 4.5t44.5 9.5v362zM990 464q-23 -26 -60 -72t-79 -102.5t-83 -118t-72 -116.5h303v-55h-378v47q26 49 64.5 108t79.5 116.5t80 108t66 82.5h-275v55h354v-53z" />
<glyph unicode="&#x1f4;" horiz-adv-x="658" d="M522 328h68v-309q-19 -8 -74.5 -20.5t-136.5 -12.5q-68 0 -126 24t-100.5 69.5t-66.5 113t-24 154.5t26 154.5t70.5 113t103.5 69.5t126 24q77 0 127 -16.5t73 -31.5l-23 -58q-28 20 -76 32.5t-104 12.5q-52 0 -98 -19t-80 -57t-53.5 -94t-19.5 -130q0 -69 16 -124.5 t48.5 -95t80.5 -60.5t111 -21q51 0 85.5 5.5t46.5 10.5v266zM505 878l-171 -139l-33 38l158 152z" />
<glyph unicode="&#x1f5;" horiz-adv-x="573" d="M423 60q-6 -5 -18 -11.5t-29.5 -13.5t-40 -11.5t-50.5 -4.5q-45 0 -87 14t-73.5 44t-50.5 77.5t-19 115.5q0 55 17 102t48.5 81.5t77 54t102.5 19.5q72 0 115.5 -9.5t71.5 -18.5v-472q0 -116 -60 -165.5t-181 -49.5q-50 0 -90.5 7.5t-69.5 17.5l13 59q24 -11 65.5 -19 t83.5 -8q92 0 133.5 35.5t41.5 121.5v34zM422 454q-17 5 -44 9.5t-77 4.5q-42 0 -74.5 -14.5t-55.5 -41t-35 -63t-12 -80.5q0 -51 14 -87.5t36.5 -59.5t51.5 -33.5t59 -10.5q44 0 80.5 13t56.5 30v333zM443 722l-171 -139l-33 38l158 152z" />
<glyph unicode="&#x1f6;" horiz-adv-x="1047" d="M899 513h68v-272q0 -55 -10 -101.5t-35 -80.5t-67.5 -53.5t-106.5 -19.5q-65 0 -107 19.5t-67 53.5t-35 80.5t-10 101.5v92h-371v-333h-68v693h68v-301h371v301h68v-436q0 -110 34.5 -160t116.5 -50t116.5 50t34.5 160v256z" />
<glyph unicode="&#x1f7;" horiz-adv-x="630" d="M158 -185h-68v836q16 6 39 14.5t51 16t58.5 12.5t60.5 5q134 0 205.5 -63.5t71.5 -188.5q0 -89 -32.5 -157.5t-88.5 -121t-132.5 -93t-164.5 -74.5v-186zM158 67q66 28 128.5 59.5t111 75.5t77.5 104t29 145q0 96 -53 142.5t-151 46.5q-53 0 -88.5 -11t-53.5 -19v-543z " />
<glyph unicode="&#x1f8;" horiz-adv-x="709" d="M562 0q-19 35 -48.5 82t-64.5 100.5t-74 110t-77.5 110t-75 100.5t-65.5 81v-584h-67v693h54q51 -57 109.5 -131.5t114.5 -152t104.5 -151.5t79.5 -129v564h67v-693h-57zM262 929l158 -152l-33 -38l-171 139z" />
<glyph unicode="&#x1f9;" horiz-adv-x="569" d="M86 499q29 8 78 18t120 10q59 0 98.5 -17t63 -48.5t33.5 -75.5t10 -97v-289h-65v268q0 55 -7.5 93t-25 62t-46 34.5t-71.5 10.5q-46 0 -79.5 -5t-43.5 -9v-454h-65v499zM195 773l158 -152l-33 -38l-171 139z" />
<glyph unicode="&#x1fa;" horiz-adv-x="641" d="M408 731q0 -26 -11.5 -45.5t-29.5 -30.5q34 -72 65 -145t62.5 -152.5t65 -167.5t71.5 -190h-75q-19 51 -36 98t-33 92h-337q-17 -45 -34 -92t-35 -98h-71q37 102 70.5 190t65 167t62.5 152t64 145q-19 11 -30 31t-11 46q0 40 25.5 64t63.5 24q35 0 61.5 -24t26.5 -64z M318 615q-38 -86 -73.5 -175t-73.5 -192h295q-38 103 -74 192t-74 175zM371 731q0 24 -14.5 38t-36.5 14q-23 0 -37.5 -14t-14.5 -38q0 -25 14.5 -39.5t37.5 -14.5q22 0 36.5 14.5t14.5 39.5zM384 956l24 -58l-154 -57l-16 41z" />
<glyph unicode="&#x1fb;" horiz-adv-x="509" d="M249 47q38 0 66.5 2.5t48.5 6.5v182q-11 5 -35 10.5t-66 5.5q-24 0 -50 -3.5t-48 -15t-36 -31.5t-14 -53q0 -29 9.5 -49t27 -32t42 -17.5t55.5 -5.5zM243 529q51 0 86.5 -14.5t57.5 -40t32 -60.5t10 -76v-326q-10 -3 -29 -6.5t-44 -7.5t-55.5 -6.5t-62.5 -2.5 q-41 0 -75.5 9t-60 28.5t-40 50t-14.5 74.5q0 42 16 72t45 49.5t69 28.5t87 9q14 0 29.5 -1.5t30 -4t25 -5t14.5 -4.5v32q0 27 -4 52.5t-17.5 46t-38 33t-64.5 12.5q-57 0 -85 -8t-41 -13l-9 57q17 8 52.5 15t85.5 7zM349 667q0 -20 -7 -36.5t-19 -28t-28 -18t-34 -6.5 q-38 0 -63.5 24t-25.5 65q0 40 25.5 64t63.5 24q35 0 61.5 -24t26.5 -64zM312 667q0 24 -14.5 38t-36.5 14q-23 0 -37.5 -14t-14.5 -38q0 -25 14.5 -39.5t37.5 -14.5q22 0 36.5 14.5t14.5 39.5zM325 899l24 -58l-154 -57l-16 41z" />
<glyph unicode="&#x1fc;" horiz-adv-x="915" d="M464 0v190h-287q-26 -48 -51.5 -95t-49.5 -95h-70q54 107 107.5 201t106.5 178.5t106 162t107 151.5h417v-59h-318v-241h282v-58h-282v-276h344v-59h-412zM464 637q-69 -93 -132 -189.5t-122 -199.5h254v389zM700 878l-171 -139l-33 38l158 152z" />
<glyph unicode="&#x1fd;" horiz-adv-x="854" d="M728 300q-2 81 -38 126t-102 45q-35 0 -62.5 -14t-48 -37.5t-32 -54.5t-13.5 -65h296zM252 -11q-44 0 -81.5 9t-64.5 28.5t-42.5 50t-15.5 74.5q0 42 16 72t45 49.5t69 28.5t87 9q14 0 29.5 -1.5t30 -4t25 -5t14.5 -4.5v32q0 27 -4 52.5t-17.5 46t-38 33t-64.5 12.5 q-54 0 -84 -7.5t-43 -12.5l-8 56q17 8 53 15t85 7q71 0 111.5 -26.5t57.5 -71.5q33 49 79 73.5t96 24.5q95 0 151.5 -62t56.5 -191q0 -8 -0.5 -16t-1.5 -15h-363q3 -95 47 -146t140 -51q53 0 84 10t45 17l12 -56q-14 -8 -52.5 -19t-90.5 -11q-57 0 -101 14t-77 46 q-11 -9 -27.5 -19.5t-39.5 -19.5t-52 -15t-66 -6zM365 238q-11 5 -35.5 10.5t-66.5 5.5q-24 0 -50 -3.5t-48 -15t-36 -31.5t-14 -53q0 -29 10 -49t28.5 -32t43.5 -17.5t55 -5.5q62 0 98 16.5t50 29.5q-16 26 -25 61.5t-10 83.5zM555 722l-171 -139l-33 38l158 152z" />
<glyph unicode="&#x1fe;" horiz-adv-x="774" d="M712 347q0 -89 -26 -157t-70.5 -113.5t-103.5 -68.5t-125 -23q-54 0 -102.5 15t-90.5 46l-61 -80l-48 36l65 84q-42 45 -65 110.5t-23 150.5q0 89 26 156.5t70.5 113t103.5 68.5t125 23q54 0 103.5 -15.5t91.5 -47.5l64 83l48 -36l-68 -88q40 -45 63 -109t23 -148z M134 347q0 -64 15 -116.5t43 -90.5l351 454q-65 53 -156 53q-58 0 -104.5 -20.5t-79.5 -59.5t-51 -94.5t-18 -125.5zM640 347q0 63 -14.5 114t-41.5 89l-351 -454q62 -50 154 -50q58 0 104.5 21t79.5 60t51 94.5t18 125.5zM525 878l-171 -139l-33 38l158 152z" />
<glyph unicode="&#x1ff;" horiz-adv-x="582" d="M527 258q0 -61 -17.5 -111t-49 -85t-74.5 -54.5t-95 -19.5q-80 0 -139 45l-51 -67l-43 32l56 72q-29 35 -44 82.5t-15 105.5q0 61 17.5 111t49 85.5t74.5 55t95 19.5q81 0 141 -48l51 67l42 -31l-56 -73q28 -35 43 -82t15 -104zM124 258q0 -80 31 -134l239 308 q-20 18 -46 28t-57 10q-77 0 -122 -57.5t-45 -154.5zM458 258q0 78 -31 132l-237 -308q41 -35 101 -35q77 0 122 57t45 154zM429 722l-171 -139l-33 38l158 152z" />
<glyph unicode="&#x200;" horiz-adv-x="641" d="M556 0q-19 51 -36 98t-33 92h-337q-17 -45 -34 -92t-35 -98h-71q40 108 75 201.5t68.5 177t66.5 160.5t70 154h60q37 -77 70 -154t66.5 -160.5t68.5 -177t76 -201.5h-75zM318 615q-38 -86 -73.5 -175t-73.5 -192h295q-38 103 -74 192t-74 175zM313 929l119 -162l-39 -29 l-126 149zM156 929l119 -162l-39 -29l-126 149z" />
<glyph unicode="&#x201;" horiz-adv-x="509" d="M249 47q38 0 66.5 2.5t48.5 6.5v182q-11 5 -35 10.5t-66 5.5q-24 0 -50 -3.5t-48 -15t-36 -31.5t-14 -53q0 -29 9.5 -49t27 -32t42 -17.5t55.5 -5.5zM243 529q51 0 86.5 -14.5t57.5 -40t32 -60.5t10 -76v-326q-10 -3 -29 -6.5t-44 -7.5t-55.5 -6.5t-62.5 -2.5 q-41 0 -75.5 9t-60 28.5t-40 50t-14.5 74.5q0 42 16 72t45 49.5t69 28.5t87 9q14 0 29.5 -1.5t30 -4t25 -5t14.5 -4.5v32q0 27 -4 52.5t-17.5 46t-38 33t-64.5 12.5q-57 0 -85 -8t-41 -13l-9 57q17 8 52.5 15t85.5 7zM253 773l119 -162l-39 -29l-126 149zM96 773l119 -162 l-39 -29l-126 149z" />
<glyph unicode="&#x202;" horiz-adv-x="641" d="M556 0q-19 51 -36 98t-33 92h-337q-17 -45 -34 -92t-35 -98h-71q40 108 75 201.5t68.5 177t66.5 160.5t70 154h60q37 -77 70 -154t66.5 -160.5t68.5 -177t76 -201.5h-75zM318 615q-38 -86 -73.5 -175t-73.5 -192h295q-38 103 -74 192t-74 175zM320 902q24 0 46.5 -8 t40 -24t27 -41.5t8.5 -59.5h-43q0 7 -2.5 20t-10.5 25.5t-23.5 22t-42.5 9.5t-42.5 -9.5t-23.5 -22t-10.5 -25.5t-2.5 -20h-43q-1 34 8.5 59.5t27 41.5t40 24t46.5 8z" />
<glyph unicode="&#x203;" horiz-adv-x="509" d="M249 47q38 0 66.5 2.5t48.5 6.5v182q-11 5 -35 10.5t-66 5.5q-24 0 -50 -3.5t-48 -15t-36 -31.5t-14 -53q0 -29 9.5 -49t27 -32t42 -17.5t55.5 -5.5zM243 529q51 0 86.5 -14.5t57.5 -40t32 -60.5t10 -76v-326q-10 -3 -29 -6.5t-44 -7.5t-55.5 -6.5t-62.5 -2.5 q-41 0 -75.5 9t-60 28.5t-40 50t-14.5 74.5q0 42 16 72t45 49.5t69 28.5t87 9q14 0 29.5 -1.5t30 -4t25 -5t14.5 -4.5v32q0 27 -4 52.5t-17.5 46t-38 33t-64.5 12.5q-57 0 -85 -8t-41 -13l-9 57q17 8 52.5 15t85.5 7zM260 746q24 0 46.5 -8t40 -24t27 -41.5t8.5 -59.5h-43 q0 7 -2.5 20t-10.5 25.5t-23.5 22t-42.5 9.5t-42.5 -9.5t-23.5 -22t-10.5 -25.5t-2.5 -20h-43q-1 34 8.5 59.5t27 41.5t40 24t46.5 8z" />
<glyph unicode="&#x204;" horiz-adv-x="555" d="M90 0v693h400v-59h-332v-241h296v-58h-296v-276h358v-59h-426zM283 929l119 -162l-39 -29l-126 149zM126 929l119 -162l-39 -29l-126 149z" />
<glyph unicode="&#x205;" horiz-adv-x="548" d="M55 259q0 68 19.5 118.5t51 84.5t72 50.5t83.5 16.5q95 0 151.5 -62t56.5 -191q0 -8 -0.5 -16t-1.5 -15h-363q3 -95 47 -146t140 -51q53 0 84 10t45 17l12 -56q-14 -8 -52.5 -19t-90.5 -11q-68 0 -116 20t-79 56t-45 85.5t-14 108.5zM422 300q-2 81 -38 126t-102 45 q-35 0 -62.5 -14t-48 -37.5t-32 -54.5t-13.5 -65h296zM273 773l119 -162l-39 -29l-126 149zM116 773l119 -162l-39 -29l-126 149z" />
<glyph unicode="&#x206;" horiz-adv-x="555" d="M90 0v693h400v-59h-332v-241h296v-58h-296v-276h358v-59h-426zM290 902q24 0 46.5 -8t40 -24t27 -41.5t8.5 -59.5h-43q0 7 -2.5 20t-10.5 25.5t-23.5 22t-42.5 9.5t-42.5 -9.5t-23.5 -22t-10.5 -25.5t-2.5 -20h-43q-1 34 8.5 59.5t27 41.5t40 24t46.5 8z" />
<glyph unicode="&#x207;" horiz-adv-x="548" d="M55 259q0 68 19.5 118.5t51 84.5t72 50.5t83.5 16.5q95 0 151.5 -62t56.5 -191q0 -8 -0.5 -16t-1.5 -15h-363q3 -95 47 -146t140 -51q53 0 84 10t45 17l12 -56q-14 -8 -52.5 -19t-90.5 -11q-68 0 -116 20t-79 56t-45 85.5t-14 108.5zM422 300q-2 81 -38 126t-102 45 q-35 0 -62.5 -14t-48 -37.5t-32 -54.5t-13.5 -65h296zM280 746q24 0 46.5 -8t40 -24t27 -41.5t8.5 -59.5h-43q0 7 -2.5 20t-10.5 25.5t-23.5 22t-42.5 9.5t-42.5 -9.5t-23.5 -22t-10.5 -25.5t-2.5 -20h-43q-1 34 8.5 59.5t27 41.5t40 24t46.5 8z" />
<glyph unicode="&#x208;" horiz-adv-x="248" d="M90 693h68v-693h-68v693zM118 929l119 -162l-39 -29l-126 149zM-39 929l119 -162l-39 -29l-126 149z" />
<glyph unicode="&#x209;" horiz-adv-x="237" d="M151 0h-65v517h65v-517zM112 773l119 -162l-39 -29l-126 149zM-45 773l119 -162l-39 -29l-126 149z" />
<glyph unicode="&#x20a;" horiz-adv-x="248" d="M90 693h68v-693h-68v693zM125 902q24 0 46.5 -8t40 -24t27 -41.5t8.5 -59.5h-43q0 7 -2.5 20t-10.5 25.5t-23.5 22t-42.5 9.5t-42.5 -9.5t-23.5 -22t-10.5 -25.5t-2.5 -20h-43q-1 34 8.5 59.5t27 41.5t40 24t46.5 8z" />
<glyph unicode="&#x20b;" horiz-adv-x="237" d="M151 0h-65v517h65v-517zM119 746q24 0 46.5 -8t40 -24t27 -41.5t8.5 -59.5h-43q0 7 -2.5 20t-10.5 25.5t-23.5 22t-42.5 9.5t-42.5 -9.5t-23.5 -22t-10.5 -25.5t-2.5 -20h-43q-1 34 8.5 59.5t27 41.5t40 24t46.5 8z" />
<glyph unicode="&#x20c;" horiz-adv-x="774" d="M712 347q0 -89 -26 -157t-70.5 -113.5t-103.5 -68.5t-125 -23t-125 23t-103.5 68.5t-70.5 113.5t-26 157t26 156.5t70.5 113t103.5 68.5t125 23t125 -23t103.5 -68.5t70.5 -113t26 -156.5zM640 347q0 70 -18 125.5t-51 94.5t-79.5 59.5t-104.5 20.5t-104.5 -20.5 t-79.5 -59.5t-51 -94.5t-18 -125.5t18 -125.5t51 -94.5t79.5 -60t104.5 -21t104.5 21t79.5 60t51 94.5t18 125.5zM380 929l119 -162l-39 -29l-126 149zM223 929l119 -162l-39 -29l-126 149z" />
<glyph unicode="&#x20d;" horiz-adv-x="582" d="M527 258q0 -61 -17.5 -111t-49 -85t-74.5 -54.5t-95 -19.5t-95 19.5t-74.5 54.5t-49 85t-17.5 111t17.5 111t49 85.5t74.5 55t95 19.5t95 -19.5t74.5 -55t49 -85.5t17.5 -111zM458 258q0 97 -45 154.5t-122 57.5t-122 -57.5t-45 -154.5t45 -154t122 -57t122 57t45 154z M284 773l119 -162l-39 -29l-126 149zM127 773l119 -162l-39 -29l-126 149z" />
<glyph unicode="&#x20e;" horiz-adv-x="774" d="M712 347q0 -89 -26 -157t-70.5 -113.5t-103.5 -68.5t-125 -23t-125 23t-103.5 68.5t-70.5 113.5t-26 157t26 156.5t70.5 113t103.5 68.5t125 23t125 -23t103.5 -68.5t70.5 -113t26 -156.5zM640 347q0 70 -18 125.5t-51 94.5t-79.5 59.5t-104.5 20.5t-104.5 -20.5 t-79.5 -59.5t-51 -94.5t-18 -125.5t18 -125.5t51 -94.5t79.5 -60t104.5 -21t104.5 21t79.5 60t51 94.5t18 125.5zM387 902q24 0 46.5 -8t40 -24t27 -41.5t8.5 -59.5h-43q0 7 -2.5 20t-10.5 25.5t-23.5 22t-42.5 9.5t-42.5 -9.5t-23.5 -22t-10.5 -25.5t-2.5 -20h-43 q-1 34 8.5 59.5t27 41.5t40 24t46.5 8z" />
<glyph unicode="&#x20f;" horiz-adv-x="582" d="M527 258q0 -61 -17.5 -111t-49 -85t-74.5 -54.5t-95 -19.5t-95 19.5t-74.5 54.5t-49 85t-17.5 111t17.5 111t49 85.5t74.5 55t95 19.5t95 -19.5t74.5 -55t49 -85.5t17.5 -111zM458 258q0 97 -45 154.5t-122 57.5t-122 -57.5t-45 -154.5t45 -154t122 -57t122 57t45 154z M291 746q24 0 46.5 -8t40 -24t27 -41.5t8.5 -59.5h-43q0 7 -2.5 20t-10.5 25.5t-23.5 22t-42.5 9.5t-42.5 -9.5t-23.5 -22t-10.5 -25.5t-2.5 -20h-43q-1 34 8.5 59.5t27 41.5t40 24t46.5 8z" />
<glyph unicode="&#x210;" horiz-adv-x="618" d="M552 485q0 -78 -41 -123t-108 -65q16 -20 41.5 -54t52.5 -74.5t53 -84.5t44 -84h-73q-21 40 -45.5 80t-50 77.5t-49.5 69.5l-42 56q-32 -3 -64 -3h-112v-280h-68v680q36 10 84.5 14.5t89.5 4.5q143 0 215.5 -54t72.5 -160zM272 640q-38 0 -66.5 -2.5t-47.5 -4.5v-295h94 q47 0 89 4.5t73 20t49 44.5t18 79q0 46 -18 76t-47 47.5t-66.5 24t-77.5 6.5zM282 929l119 -162l-39 -29l-126 149zM125 929l119 -162l-39 -29l-126 149z" />
<glyph unicode="&#x211;" horiz-adv-x="374" d="M262 527q32 0 60.5 -5t39.5 -10l-13 -56q-8 4 -32.5 8.5t-64.5 4.5q-42 0 -67.5 -6t-33.5 -10v-453h-65v493q25 11 69 22.5t107 11.5zM221 773l119 -162l-39 -29l-126 149zM64 773l119 -162l-39 -29l-126 149z" />
<glyph unicode="&#x212;" horiz-adv-x="618" d="M552 485q0 -78 -41 -123t-108 -65q16 -20 41.5 -54t52.5 -74.5t53 -84.5t44 -84h-73q-21 40 -45.5 80t-50 77.5t-49.5 69.5l-42 56q-32 -3 -64 -3h-112v-280h-68v680q36 10 84.5 14.5t89.5 4.5q143 0 215.5 -54t72.5 -160zM272 640q-38 0 -66.5 -2.5t-47.5 -4.5v-295h94 q47 0 89 4.5t73 20t49 44.5t18 79q0 46 -18 76t-47 47.5t-66.5 24t-77.5 6.5zM289 902q24 0 46.5 -8t40 -24t27 -41.5t8.5 -59.5h-43q0 7 -2.5 20t-10.5 25.5t-23.5 22t-42.5 9.5t-42.5 -9.5t-23.5 -22t-10.5 -25.5t-2.5 -20h-43q-1 34 8.5 59.5t27 41.5t40 24t46.5 8z" />
<glyph unicode="&#x213;" horiz-adv-x="374" d="M262 527q32 0 60.5 -5t39.5 -10l-13 -56q-8 4 -32.5 8.5t-64.5 4.5q-42 0 -67.5 -6t-33.5 -10v-453h-65v493q25 11 69 22.5t107 11.5zM227 746q24 0 46.5 -8t40 -24t27 -41.5t8.5 -59.5h-43q0 7 -2.5 20t-10.5 25.5t-23.5 22t-42.5 9.5t-42.5 -9.5t-23.5 -22t-10.5 -25.5 t-2.5 -20h-43q-1 34 8.5 59.5t27 41.5t40 24t46.5 8z" />
<glyph unicode="&#x214;" horiz-adv-x="680" d="M340 -15q-69 0 -117.5 21t-78.5 58t-43.5 86.5t-13.5 106.5v436h68v-427q0 -57 13.5 -98.5t37.5 -68.5t58 -40t76 -13t76 13t58 40t37.5 68.5t13.5 98.5v427h68v-436q0 -57 -13.5 -106.5t-43.5 -86.5t-78.5 -58t-117.5 -21zM333 929l119 -162l-39 -29l-126 149zM176 929 l119 -162l-39 -29l-126 149z" />
<glyph unicode="&#x215;" horiz-adv-x="569" d="M483 18q-29 -8 -78 -18t-120 -10q-58 0 -97 17t-63 48t-34.5 75t-10.5 97v290h65v-269q0 -55 8 -93t26 -61.5t46.5 -34t69.5 -10.5q46 0 80 5t43 9v454h65v-499zM274 773l119 -162l-39 -29l-126 149zM117 773l119 -162l-39 -29l-126 149z" />
<glyph unicode="&#x216;" horiz-adv-x="680" d="M340 -15q-69 0 -117.5 21t-78.5 58t-43.5 86.5t-13.5 106.5v436h68v-427q0 -57 13.5 -98.5t37.5 -68.5t58 -40t76 -13t76 13t58 40t37.5 68.5t13.5 98.5v427h68v-436q0 -57 -13.5 -106.5t-43.5 -86.5t-78.5 -58t-117.5 -21zM340 902q24 0 46.5 -8t40 -24t27 -41.5 t8.5 -59.5h-43q0 7 -2.5 20t-10.5 25.5t-23.5 22t-42.5 9.5t-42.5 -9.5t-23.5 -22t-10.5 -25.5t-2.5 -20h-43q-1 34 8.5 59.5t27 41.5t40 24t46.5 8z" />
<glyph unicode="&#x217;" horiz-adv-x="569" d="M483 18q-29 -8 -78 -18t-120 -10q-58 0 -97 17t-63 48t-34.5 75t-10.5 97v290h65v-269q0 -55 8 -93t26 -61.5t46.5 -34t69.5 -10.5q46 0 80 5t43 9v454h65v-499zM281 746q24 0 46.5 -8t40 -24t27 -41.5t8.5 -59.5h-43q0 7 -2.5 20t-10.5 25.5t-23.5 22t-42.5 9.5 t-42.5 -9.5t-23.5 -22t-10.5 -25.5t-2.5 -20h-43q-1 34 8.5 59.5t27 41.5t40 24t46.5 8z" />
<glyph unicode="&#x218;" horiz-adv-x="517" d="M239 44q81 0 126 29.5t45 95.5q0 38 -14.5 63.5t-38.5 43t-55 30t-65 26.5q-43 17 -77 35t-58 40.5t-36.5 51.5t-12.5 68q0 89 59 135t164 46q28 0 55 -4t50.5 -10.5t43 -14.5t32.5 -17l-24 -57q-29 20 -70.5 32t-89.5 12q-33 0 -60.5 -6.5t-47.5 -21t-31.5 -36.5 t-11.5 -53q0 -32 12 -54t33.5 -38t50.5 -29t63 -27q41 -17 77.5 -34t63.5 -40t43 -56t16 -81q0 -94 -65.5 -141t-177.5 -47q-40 0 -73 5t-59 12.5t-44 15.5t-28 14l22 59q10 -6 27 -14t40 -15.5t52 -12.5t64 -5zM229 -68v13h64q1 -4 1 -9v-8q0 -54 -30 -84t-78 -30 q-8 0 -17 1t-14 3v43q43 0 58.5 17t15.5 54z" />
<glyph unicode="&#x219;" horiz-adv-x="428" d="M192 46q56 0 92.5 18.5t36.5 62.5q0 21 -6.5 36t-21.5 27t-39.5 23t-60.5 26q-29 12 -55 24.5t-46 29t-32 39.5t-12 56q0 63 47.5 102t130.5 39q53 0 87.5 -9t48.5 -16l-15 -58q-12 6 -40.5 16t-83.5 10q-22 0 -41.5 -4.5t-34.5 -14t-24 -24t-9 -35.5t8 -36t23.5 -26.5 t38 -21.5t51.5 -22q30 -12 57.5 -24.5t48.5 -30t34 -42t13 -61.5q0 -70 -52.5 -106t-143.5 -36q-68 0 -104 11.5t-48 17.5l17 59q3 -2 13 -6.5t27 -10t40.5 -9.5t54.5 -4zM183 -68v13h64q1 -4 1 -9v-8q0 -54 -30 -84t-78 -30q-8 0 -17 1t-14 3v43q43 0 58.5 17t15.5 54z" />
<glyph unicode="&#x21a;" horiz-adv-x="548" d="M530 693v-59h-222v-634h-68v634h-222v59h512zM239 -68v13h64q1 -4 1 -9v-8q0 -54 -30 -84t-78 -30q-8 0 -17 1t-14 3v43q43 0 58.5 17t15.5 54z" />
<glyph unicode="&#x21b;" horiz-adv-x="387" d="M147 517h206v-55h-206v-275q0 -44 7.5 -71.5t21.5 -42.5t34 -20t44 -5q41 0 66 9.5t39 17.5l16 -54q-14 -9 -49 -20.5t-76 -11.5q-48 0 -80.5 12.5t-52 38t-27.5 63.5t-8 90v476l65 12v-164zM200 -68v13h64q1 -4 1 -9v-8q0 -54 -30 -84t-78 -30q-8 0 -17 1t-14 3v43 q43 0 58.5 17t15.5 54z" />
<glyph unicode="&#x21c;" horiz-adv-x="524" d="M209 650q-50 0 -93.5 -14t-72.5 -34l-24 57q13 9 32.5 17.5t44 15.5t53 11.5t59.5 4.5q51 0 93.5 -13t73.5 -38.5t48 -65t17 -91.5q0 -31 -10 -61.5t-29.5 -56.5t-47.5 -46t-64 -31q85 -20 132.5 -77.5t47.5 -137.5q0 -77 -32.5 -130t-85.5 -85t-120 -46t-136 -14 q-21 0 -39 0.5t-26 2.5l4 58q5 -1 19.5 -1.5t34.5 -0.5q53 0 108 9.5t99.5 34t73 65.5t28.5 104q0 56 -24.5 91.5t-60.5 55.5t-76 27.5t-71 7.5h-36v58h27q39 0 77 9.5t68 30.5t48.5 53.5t18.5 77.5q0 71 -40.5 111.5t-118.5 40.5z" />
<glyph unicode="&#x21d;" horiz-adv-x="417" d="M154 473q-46 -1 -75 -8.5t-49 -17.5l-17 53q20 11 59.5 20t84.5 9q40 0 75 -9.5t61 -30.5t41 -55t15 -83q0 -26 -9.5 -49.5t-25 -42.5t-36.5 -33t-43 -21q62 -13 101 -51t39 -109q0 -45 -16 -79.5t-43.5 -60t-64 -43t-76 -28t-80.5 -15t-78 -4.5l-3 55q22 1 52 3.5 t62.5 8.5t64.5 18t57.5 31t41 47t15.5 67q0 44 -20 69t-48.5 38t-59.5 16t-53 3h-18v55h12q27 0 56 6.5t53 21.5t39 40t15 62q0 57 -32.5 87t-96.5 30z" />
<glyph unicode="&#x21e;" horiz-adv-x="692" d="M534 693h68v-693h-68v333h-376v-333h-68v693h68v-301h376v301zM346 825l104 96l28 -31l-132 -147l-132 147l28 31z" />
<glyph unicode="&#x21f;" horiz-adv-x="569" d="M86 0v764l65 12v-274q32 12 65 18.5t66 6.5q60 0 100 -17t64 -48.5t33.5 -75.5t9.5 -97v-289h-65v268q0 55 -7.5 93t-25 62t-46.5 34.5t-73 10.5q-17 0 -36.5 -3t-36.5 -6.5t-30.5 -7.5t-17.5 -6v-445h-65zM164 825l-119 98l22 35l97 -68l97 68l22 -35z" />
<glyph unicode="&#x220;" horiz-adv-x="664" d="M577 -185h-68v600q0 58 -9.5 101.5t-31.5 72.5t-58 43.5t-88 14.5q-54 0 -96 -6.5t-68 -14.5v-626h-68v671q18 6 44 12.5t57.5 11.5t67.5 8.5t74 3.5q69 0 116 -20t75.5 -56t40.5 -85.5t12 -107.5v-623z" />
<glyph unicode="&#x221;" horiz-adv-x="706" d="M579 39q-29 0 -47 -14t-35 -35v-26q0 -47 23 -70t60 -23q40 0 58.5 24.5t18.5 59.5q0 33 -19 58.5t-59 25.5zM497 56q20 20 43.5 29t49.5 9q30 0 53.5 -10.5t40 -29.5t25.5 -44t9 -55q0 -66 -38 -103t-100 -37q-63 0 -96 28t-45 74l-74 -88l-34 30l102 122q-1 10 -1 15.5 v14.5q-22 -8 -54 -14t-69 -6q-57 0 -103.5 18t-80 52.5t-52 84t-18.5 112.5q0 59 15.5 108.5t45.5 85.5t73.5 56t99.5 20q51 0 88.5 -14.5t54.5 -27.5v278l65 12v-720zM432 423q-9 7 -22.5 15t-31.5 15t-39 11.5t-44 4.5q-48 0 -80.5 -17t-52.5 -45.5t-29 -67t-9 -81.5 q0 -51 13.5 -89.5t38 -65t58.5 -40t76 -13.5q48 0 78 7.5t44 12.5v353z" />
<glyph unicode="&#x222;" horiz-adv-x="654" d="M327 54q45 0 82.5 8.5t64.5 26t42 45.5t15 67t-15 67t-42 46t-64.5 26.5t-82.5 8.5t-82.5 -8.5t-64.5 -26.5t-42 -46t-15 -67t15 -67t42 -45.5t64.5 -26t82.5 -8.5zM327 -4q-141 0 -208.5 55.5t-67.5 149.5q0 42 14 73t36 53t48.5 35.5t50.5 18.5q-49 16 -75.5 55 t-26.5 109q0 45 5.5 80.5t13.5 67.5h64q-5 -26 -11 -62.5t-6 -78.5q0 -73 38.5 -109.5t124.5 -36.5t124.5 36.5t38.5 109.5q0 42 -6 78.5t-11 62.5h64q8 -32 13.5 -67.5t5.5 -80.5q0 -70 -26.5 -109t-75.5 -55q24 -5 50.5 -18.5t48.5 -35.5t36 -53t14 -73 q0 -94 -67.5 -149.5t-208.5 -55.5z" />
<glyph unicode="&#x223;" horiz-adv-x="588" d="M294 46q78 0 122.5 50.5t44.5 137.5q0 88 -44.5 138t-122.5 50t-122.5 -50t-44.5 -138q0 -87 44.5 -137.5t122.5 -50.5zM294 478q67 0 101 37t34 124q0 45 -4.5 76.5t-10.5 60.5h64q8 -39 12 -75.5t4 -78.5q0 -70 -24 -112t-64 -60q24 -11 46 -29.5t39.5 -45.5t28 -62.5 t10.5 -78.5q0 -55 -16 -100.5t-46 -77.5t-74 -50t-100 -18t-100 18t-74 50t-46 77.5t-16 100.5q0 43 10.5 78.5t28 62.5t39.5 45.5t46 29.5q-40 18 -64 60t-24 112q0 42 4 78.5t12 75.5h64q-6 -29 -10.5 -60.5t-4.5 -76.5q0 -87 34 -124t101 -37z" />
<glyph unicode="&#x224;" horiz-adv-x="560" d="M520 -3q0 -44 -4 -78.5t-17 -58t-38 -35.5t-67 -12q-17 0 -32.5 3t-23.5 6l9 54q5 -2 15 -4t22 -2q41 0 55.5 24.5t14.5 84.5v21h-416v51q22 43 52.5 94.5t65.5 106t73 109.5t75 105.5t70.5 93.5t61.5 74h-379v59h453v-62q-24 -28 -55.5 -68t-67.5 -87.5t-73.5 -101 t-74 -108t-69 -107.5t-58.5 -100h408v-62z" />
<glyph unicode="&#x225;" horiz-adv-x="455" d="M416 -3q0 -42 -3 -75.5t-15.5 -57.5t-37 -37t-67.5 -13q-17 0 -31 2.5t-22 5.5l9 53q12 -5 36 -5q42 0 56 25.5t14 83.5v21h-317v47q26 49 64.5 108t79.5 116.5t80 108t66 82.5h-275v55h354v-53q-23 -26 -60 -72t-79 -102.5t-83 -118t-72 -116.5h303v-58z" />
<glyph unicode="&#x226;" horiz-adv-x="641" d="M556 0q-19 51 -36 98t-33 92h-337q-17 -45 -34 -92t-35 -98h-71q40 108 75 201.5t68.5 177t66.5 160.5t70 154h60q37 -77 70 -154t66.5 -160.5t68.5 -177t76 -201.5h-75zM318 615q-38 -86 -73.5 -175t-73.5 -192h295q-38 103 -74 192t-74 175zM320 779q-20 0 -34 13.5 t-14 36.5t14 36.5t34 13.5t34 -13.5t14 -36.5t-14 -36.5t-34 -13.5z" />
<glyph unicode="&#x227;" horiz-adv-x="509" d="M249 47q38 0 66.5 2.5t48.5 6.5v182q-11 5 -35 10.5t-66 5.5q-24 0 -50 -3.5t-48 -15t-36 -31.5t-14 -53q0 -29 9.5 -49t27 -32t42 -17.5t55.5 -5.5zM243 529q51 0 86.5 -14.5t57.5 -40t32 -60.5t10 -76v-326q-10 -3 -29 -6.5t-44 -7.5t-55.5 -6.5t-62.5 -2.5 q-41 0 -75.5 9t-60 28.5t-40 50t-14.5 74.5q0 42 16 72t45 49.5t69 28.5t87 9q14 0 29.5 -1.5t30 -4t25 -5t14.5 -4.5v32q0 27 -4 52.5t-17.5 46t-38 33t-64.5 12.5q-57 0 -85 -8t-41 -13l-9 57q17 8 52.5 15t85.5 7zM260 623q-20 0 -34 13.5t-14 36.5t14 36.5t34 13.5 t34 -13.5t14 -36.5t-14 -36.5t-34 -13.5z" />
<glyph unicode="&#x228;" horiz-adv-x="555" d="M317 -36q28 -12 44.5 -29.5t16.5 -46.5q0 -12 -4 -25.5t-15 -24.5t-30 -18t-49 -7q-20 0 -41 3.5t-30 8.5l8 43q11 -5 25 -7t34 -2q41 0 41 29q0 17 -14 26t-44 21q5 14 13 32.5t16 32.5h-198v693h400v-59h-332v-241h296v-58h-296v-276h358v-59h-182q-5 -9 -9.5 -18.5 t-7.5 -17.5z" />
<glyph unicode="&#x229;" horiz-adv-x="548" d="M303 -36q28 -12 44.5 -29.5t16.5 -46.5q0 -12 -4 -25.5t-15 -24.5t-30 -18t-49 -7q-20 0 -41 3.5t-30 8.5l8 43q11 -5 25 -7t34 -2q41 0 41 29q0 17 -14 26t-44 21q4 12 10.5 27t14.5 29q-57 6 -98 28t-67 57t-38 82t-12 101q0 68 19.5 118.5t51 84.5t72 50.5t83.5 16.5 q95 0 151.5 -62t56.5 -191q0 -8 -0.5 -16t-1.5 -15h-363q3 -95 47 -146t140 -51q53 0 84 10t45 17l12 -56q-14 -8 -50.5 -18.5t-87.5 -11.5q-3 -7 -6 -13.5t-5 -11.5zM422 300q-2 81 -38 126t-102 45q-35 0 -62.5 -14t-48 -37.5t-32 -54.5t-13.5 -65h296z" />
<glyph unicode="&#x22a;" horiz-adv-x="774" d="M712 347q0 -89 -26 -157t-70.5 -113.5t-103.5 -68.5t-125 -23t-125 23t-103.5 68.5t-70.5 113.5t-26 157t26 156.5t70.5 113t103.5 68.5t125 23t125 -23t103.5 -68.5t70.5 -113t26 -156.5zM640 347q0 70 -18 125.5t-51 94.5t-79.5 59.5t-104.5 20.5t-104.5 -20.5 t-79.5 -59.5t-51 -94.5t-18 -125.5t18 -125.5t51 -94.5t79.5 -60t104.5 -21t104.5 21t79.5 60t51 94.5t18 125.5zM262 953h251v-54h-251v54zM334 798q0 -22 -13 -35t-33 -13t-33 13t-13 35t13 35t33 13t33 -13t13 -35zM533 798q0 -22 -13 -35t-33 -13t-33 13t-13 35t13 35 t33 13t33 -13t13 -35z" />
<glyph unicode="&#x22b;" horiz-adv-x="582" d="M527 258q0 -61 -17.5 -111t-49 -85t-74.5 -54.5t-95 -19.5t-95 19.5t-74.5 54.5t-49 85t-17.5 111t17.5 111t49 85.5t74.5 55t95 19.5t95 -19.5t74.5 -55t49 -85.5t17.5 -111zM458 258q0 97 -45 154.5t-122 57.5t-122 -57.5t-45 -154.5t45 -154t122 -57t122 57t45 154z M166 797h251v-54h-251v54zM238 642q0 -22 -13 -35t-33 -13t-33 13t-13 35t13 35t33 13t33 -13t13 -35zM437 642q0 -22 -13 -35t-33 -13t-33 13t-13 35t13 35t33 13t33 -13t13 -35z" />
<glyph unicode="&#x22c;" horiz-adv-x="774" d="M712 347q0 -89 -26 -157t-70.5 -113.5t-103.5 -68.5t-125 -23t-125 23t-103.5 68.5t-70.5 113.5t-26 157t26 156.5t70.5 113t103.5 68.5t125 23t125 -23t103.5 -68.5t70.5 -113t26 -156.5zM640 347q0 70 -18 125.5t-51 94.5t-79.5 59.5t-104.5 20.5t-104.5 -20.5 t-79.5 -59.5t-51 -94.5t-18 -125.5t18 -125.5t51 -94.5t79.5 -60t104.5 -21t104.5 21t79.5 60t51 94.5t18 125.5zM262 953h251v-54h-251v54zM448 754q-20 0 -38 6t-34 14q-33 16 -50 16q-19 0 -31 -10t-22 -27l-34 16q5 11 12.5 24t18 24t24.5 18.5t32 7.5q20 0 38 -6 t34 -14q33 -16 50 -16q19 0 31 10t22 27l34 -16q-5 -11 -12.5 -24t-18 -24t-24.5 -18.5t-32 -7.5z" />
<glyph unicode="&#x22d;" horiz-adv-x="582" d="M527 258q0 -61 -17.5 -111t-49 -85t-74.5 -54.5t-95 -19.5t-95 19.5t-74.5 54.5t-49 85t-17.5 111t17.5 111t49 85.5t74.5 55t95 19.5t95 -19.5t74.5 -55t49 -85.5t17.5 -111zM458 258q0 97 -45 154.5t-122 57.5t-122 -57.5t-45 -154.5t45 -154t122 -57t122 57t45 154z M166 797h251v-54h-251v54zM352 598q-20 0 -38 6t-34 14q-33 16 -50 16q-19 0 -31 -10t-22 -27l-34 16q5 11 12.5 24t18 24t24.5 18.5t32 7.5q20 0 38 -6t34 -14q33 -16 50 -16q19 0 31 10t22 27l34 -16q-5 -11 -12.5 -24t-18 -24t-24.5 -18.5t-32 -7.5z" />
<glyph unicode="&#x22e;" horiz-adv-x="774" d="M712 347q0 -89 -26 -157t-70.5 -113.5t-103.5 -68.5t-125 -23t-125 23t-103.5 68.5t-70.5 113.5t-26 157t26 156.5t70.5 113t103.5 68.5t125 23t125 -23t103.5 -68.5t70.5 -113t26 -156.5zM640 347q0 70 -18 125.5t-51 94.5t-79.5 59.5t-104.5 20.5t-104.5 -20.5 t-79.5 -59.5t-51 -94.5t-18 -125.5t18 -125.5t51 -94.5t79.5 -60t104.5 -21t104.5 21t79.5 60t51 94.5t18 125.5zM387 779q-20 0 -34 13.5t-14 36.5t14 36.5t34 13.5t34 -13.5t14 -36.5t-14 -36.5t-34 -13.5z" />
<glyph unicode="&#x22f;" horiz-adv-x="582" d="M527 258q0 -61 -17.5 -111t-49 -85t-74.5 -54.5t-95 -19.5t-95 19.5t-74.5 54.5t-49 85t-17.5 111t17.5 111t49 85.5t74.5 55t95 19.5t95 -19.5t74.5 -55t49 -85.5t17.5 -111zM458 258q0 97 -45 154.5t-122 57.5t-122 -57.5t-45 -154.5t45 -154t122 -57t122 57t45 154z M291 623q-20 0 -34 13.5t-14 36.5t14 36.5t34 13.5t34 -13.5t14 -36.5t-14 -36.5t-34 -13.5z" />
<glyph unicode="&#x230;" horiz-adv-x="774" d="M712 347q0 -89 -26 -157t-70.5 -113.5t-103.5 -68.5t-125 -23t-125 23t-103.5 68.5t-70.5 113.5t-26 157t26 156.5t70.5 113t103.5 68.5t125 23t125 -23t103.5 -68.5t70.5 -113t26 -156.5zM640 347q0 70 -18 125.5t-51 94.5t-79.5 59.5t-104.5 20.5t-104.5 -20.5 t-79.5 -59.5t-51 -94.5t-18 -125.5t18 -125.5t51 -94.5t79.5 -60t104.5 -21t104.5 21t79.5 60t51 94.5t18 125.5zM262 953h251v-54h-251v54zM434 798q0 -22 -13 -35t-33 -13t-33 13t-13 35t13 35t33 13t33 -13t13 -35z" />
<glyph unicode="&#x231;" horiz-adv-x="582" d="M527 258q0 -61 -17.5 -111t-49 -85t-74.5 -54.5t-95 -19.5t-95 19.5t-74.5 54.5t-49 85t-17.5 111t17.5 111t49 85.5t74.5 55t95 19.5t95 -19.5t74.5 -55t49 -85.5t17.5 -111zM458 258q0 97 -45 154.5t-122 57.5t-122 -57.5t-45 -154.5t45 -154t122 -57t122 57t45 154z M166 797h251v-54h-251v54zM338 642q0 -22 -13 -35t-33 -13t-33 13t-13 35t13 35t33 13t33 -13t13 -35z" />
<glyph unicode="&#x232;" horiz-adv-x="569" d="M251 0v285q-71 109 -130.5 210.5t-110.5 197.5h79q42 -88 92.5 -178.5t105.5 -172.5q53 82 104 172.5t94 178.5h74q-53 -95 -112 -197.5t-128 -208.5v-287h-68zM152 805v55h265v-55h-265z" />
<glyph unicode="&#x233;" horiz-adv-x="474" d="M227 -11q-33 61 -63.5 127t-57 133.5t-48.5 135t-38 132.5h69q11 -48 28 -103.5t38.5 -114.5t47.5 -121t56 -122q22 62 39 117t31.5 109.5t28 111.5t28.5 123h65q-32 -145 -73 -282t-89 -251q-19 -45 -39 -77.5t-44.5 -53.5t-57 -31t-76.5 -10q-25 0 -45.5 6t-25.5 9 l13 54q4 -3 22.5 -8.5t38.5 -5.5q28 0 50.5 6t40.5 20.5t32.5 37.5t28.5 58zM116 649v55h265v-55h-265z" />
<glyph unicode="&#x234;" horiz-adv-x="357" d="M230 39q-29 0 -47 -14t-35 -35v-26q0 -47 23 -70t60 -23q40 0 58.5 24.5t18.5 59.5q0 33 -19 58.5t-59 25.5zM16 -171l-34 30l102 122q-1 10 -1 16v15v752l65 12v-720q20 20 43.5 29t49.5 9q30 0 53.5 -10.5t40 -29.5t25.5 -44t9 -55q0 -66 -38 -103t-100 -37 q-63 0 -96 28t-45 74z" />
<glyph unicode="&#x235;" horiz-adv-x="698" d="M571 39q-29 0 -47 -14t-35 -35v-26q0 -47 23 -70t60 -23q40 0 58.5 24.5t18.5 59.5q0 33 -19 58.5t-59 25.5zM489 56q20 20 43.5 29t49.5 9q30 0 53.5 -10.5t40 -29.5t25.5 -44t9 -55q0 -66 -38 -103t-100 -37q-63 0 -96 28t-45 74l-74 -88l-34 30l102 122q-1 10 -1 16 v15v256q0 55 -7.5 93t-25 62t-46 34.5t-71.5 10.5q-46 0 -79.5 -5t-43.5 -9v-454h-65v499q29 8 78 18t120 10q59 0 98.5 -17t63 -48.5t33.5 -75.5t10 -97v-233z" />
<glyph unicode="&#x236;" horiz-adv-x="388" d="M148 56q20 20 43.5 29t49.5 9q30 0 53.5 -10.5t40 -29.5t25.5 -44t9 -55q0 -66 -38 -103t-100 -37q-63 0 -96 28t-45 74l-74 -88l-34 30l102 122q-1 10 -1 16v15v657l65 12v-164h206v-55h-206v-406zM230 39q-29 0 -47 -14t-35 -35v-26q0 -47 23 -70t60 -23 q40 0 58.5 24.5t18.5 59.5q0 33 -19 58.5t-59 25.5z" />
<glyph unicode="&#x237;" horiz-adv-x="237" d="M-11 -187q-11 0 -27.5 3t-24.5 7l9 53q7 -2 19 -4t23 -2q59 0 78.5 33t19.5 99v515h65v-512q0 -98 -37 -145t-125 -47z" />
<glyph unicode="&#x238;" horiz-adv-x="929" d="M497 61q15 -5 44.5 -9.5t77.5 -4.5q84 0 135 54.5t51 156.5q0 43 -9 81.5t-29 67t-52.5 45.5t-80.5 17q-23 0 -44 -4.5t-39 -11.5t-31.5 -15t-22.5 -15v-362zM497 486q17 13 54.5 27.5t88.5 14.5q56 0 99.5 -20t73.5 -56t45.5 -85.5t15.5 -108.5q0 -63 -18.5 -113 t-52 -85t-80 -53.5t-103.5 -18.5q-51 0 -91 8t-65 16q-25 -8 -64.5 -16t-90.5 -8q-57 0 -103.5 18.5t-80 53.5t-52 85t-18.5 113q0 59 15.5 108.5t45.5 85.5t73.5 56t99.5 20q51 0 88.5 -14.5t54.5 -27.5v278l65 12v-290zM432 423q-9 7 -22.5 15t-31.5 15t-39 11.5t-44 4.5 q-48 0 -80.5 -17t-52.5 -45.5t-29 -67t-9 -81.5q0 -102 51 -156.5t135 -54.5q48 0 77.5 4.5t44.5 9.5v362z" />
<glyph unicode="&#x239;" horiz-adv-x="929" d="M497 93q9 -7 22.5 -15t31.5 -15t39 -11.5t44 -4.5q48 0 80.5 16.5t52.5 45t29 67t9 81.5q0 102 -51 156.5t-135 54.5q-48 0 -77.5 -4.5t-44.5 -9.5v-361zM497 -185h-65v215q-17 -13 -54.5 -27.5t-88.5 -14.5q-56 0 -99.5 20t-73.5 55.5t-45.5 85t-15.5 108.5 q0 63 18.5 113t52 85t80 53.5t103.5 18.5q51 0 90.5 -8t64.5 -16q25 8 65 16t91 8q57 0 103.5 -18.5t80 -53.5t52 -85t18.5 -113q0 -59 -15.5 -108.5t-45.5 -85t-73.5 -55.5t-99.5 -20q-51 0 -88.5 14.5t-54.5 27.5v-215zM432 454q-15 5 -44.5 9.5t-77.5 4.5 q-84 0 -135 -54.5t-51 -156.5q0 -43 9 -81.5t29 -67t52.5 -45t80.5 -16.5q23 0 44 4.5t39 11.5t31.5 15t22.5 15v361z" />
<glyph unicode="&#x23a;" horiz-adv-x="641" d="M533 754l-96 -254q23 -54 45.5 -111.5t46 -119t49 -128.5t53.5 -141h-74q-19 51 -36.5 98.5t-33.5 92.5h-167l-110 -291l-54 19l103 272h-110q-17 -45 -34 -92.5t-35 -98.5h-70q40 108 75 201.5t68.5 177t66.5 160.5t70 154h60q14 -30 27.5 -59.5t26.5 -58.5l75 198z M280 246l92 244q-14 33 -27 64t-27 63q-38 -86 -74.5 -176.5t-74.5 -194.5h111zM468 246q-17 44 -32.5 85t-31.5 81l-63 -166h127z" />
<glyph unicode="&#x23b;" horiz-adv-x="627" d="M562 754l-30 -72q22 -8 38 -16t26 -14l-23 -58q-27 17 -65 32l-233 -558q49 -22 109 -22q66 0 110.5 12.5t67.5 25.5l19 -58q-7 -5 -24 -11.5t-43 -13.5t-60 -11.5t-76 -4.5q-67 0 -128 25l-45 -109l-53 21l48 115q-63 44 -100.5 122t-37.5 188q0 87 26.5 154.5 t70.5 113.5t102 69.5t121 23.5q26 0 49.5 -2.5t44.5 -7.5l33 77zM134 346q0 -167 92 -247l227 542q-29 6 -58 6q-65 0 -113.5 -22t-81.5 -62t-49.5 -95t-16.5 -122z" />
<glyph unicode="&#x23c;" horiz-adv-x="473" d="M300 -11q-23 0 -44.5 3.5t-40.5 8.5l-27 -85l-52 16l29 91q-55 32 -82.5 92.5t-27.5 141.5q0 61 16.5 111t47.5 86t75 55.5t99 19.5q8 0 16.5 -0.5t16.5 -1.5l28 86l52 -16l-25 -79q18 -5 33 -10t25 -10l-17 -55q-13 6 -27.5 11.5t-31.5 9.5l-129 -405q17 -5 35.5 -8 t41.5 -3q42 0 70.5 9t41.5 16l14 -55q-18 -10 -56.5 -19.5t-80.5 -9.5zM124 257q0 -55 14.5 -99t46.5 -71l123 383h-9q-86 0 -130.5 -55.5t-44.5 -157.5z" />
<glyph unicode="&#x23d;" horiz-adv-x="516" d="M498 59v-59h-394v334h-80v54h80v305h68v-305h163v-54h-163v-275h326z" />
<glyph unicode="&#x23e;" horiz-adv-x="579" d="M526 693l45 63l48 -32l-312 -441v-283h-67v197l-166 -234l-47 32l213 300v339h-222v59h508zM307 382l178 252h-178v-252z" />
<glyph unicode="&#x23f;" horiz-adv-x="428" d="M328 -130q10 0 17 0.5t16 2.5l8 -52q-7 -2 -22 -4t-29 -2q-28 0 -49.5 4.5t-40 14t-37 26t-41.5 40.5q-23 25 -38 44.5t-27 34.5t-24 26t-28 19l22 53q26 -14 60 -22t76 -8q56 0 93 18t37 62q0 21 -6.5 35.5t-21.5 26.5t-39.5 23t-60.5 26q-29 12 -55 24.5t-46 29 t-32 39.5t-12 56q0 63 47.5 101.5t130.5 38.5q53 0 87.5 -8.5t48.5 -15.5l-15 -58q-12 6 -40.5 15.5t-83.5 9.5q-22 0 -41.5 -4.5t-34.5 -13.5t-24 -23.5t-9 -35.5t8 -36t23.5 -26.5t38 -21.5t51.5 -22q30 -12 57.5 -24.5t48.5 -29.5t34 -41.5t13 -61.5q0 -70 -52.5 -102.5 t-143.5 -32.5q-11 0 -26 1.5t-28 4.5q8 -8 23.5 -26t38.5 -44q13 -14 25.5 -25.5t27 -19.5t33 -12t42.5 -4z" />
<glyph unicode="&#x240;" horiz-adv-x="454" d="M456 -177q-7 -2 -22 -4t-29 -2q-36 0 -61.5 10t-46 25.5t-38.5 36t-39 41.5q-15 15 -30 27.5t-33.5 22t-41.5 15t-53 5.5h-24v47q26 49 64.5 108t79.5 116.5t80 108t66 82.5h-275v55h354v-53q-23 -25 -59.5 -70.5t-77.5 -101.5t-83 -117.5t-75 -118.5q53 -7 91.5 -33 t73.5 -62q16 -16 30.5 -32t31 -28.5t35 -20.5t41.5 -8q10 0 17 0.5t16 2.5z" />
<glyph unicode="&#x241;" horiz-adv-x="473" d="M206 0h-68v203q0 46 8 75.5t25.5 51t44 39.5t63.5 41q43 26 66 51.5t23 72.5q0 30 -12.5 52t-34 36t-50.5 20.5t-61 6.5q-30 0 -56 -5t-47 -12.5t-36.5 -15.5t-24.5 -14l-23 56q10 8 29 16.5t44.5 16t55.5 12.5t60 5q112 0 169.5 -45t57.5 -129q0 -36 -10.5 -62 t-28.5 -46t-42.5 -36.5t-51.5 -33.5q-32 -20 -51.5 -35t-30.5 -31.5t-14.5 -37.5t-3.5 -52v-200z" />
<glyph unicode="&#x242;" horiz-adv-x="406" d="M182 0h-66v121q0 35 8.5 59t24 42t37 32.5t47.5 29.5q37 22 56.5 43.5t19.5 56.5q0 26 -11 43t-29 26.5t-41 13.5t-47 4q-45 0 -83.5 -12.5t-63.5 -30.5l-22 54q9 7 25.5 15t38.5 15t48 12t55 5q100 0 148.5 -38.5t48.5 -107.5q0 -29 -9.5 -50.5t-25.5 -39t-36.5 -31 t-41.5 -26.5t-36.5 -24.5t-25 -25t-14.5 -31t-5 -41.5v-114z" />
<glyph unicode="&#x243;" horiz-adv-x="644" d="M270 -6q-17 0 -39.5 1.5t-46 4t-44.5 6t-36 7.5v155h-80v53h80v459q18 5 40 8.5t45.5 6t46 3.5t41.5 1q56 0 106.5 -9t88.5 -30t60.5 -55.5t22.5 -85.5q0 -56 -28.5 -95.5t-76.5 -54.5q30 -7 55 -20t44 -33.5t29.5 -50t10.5 -70.5q0 -98 -78 -149.5t-241 -51.5zM172 332 v-111h130v-53h-130v-109q15 -2 45 -4.5t61 -2.5q46 0 89.5 6t76.5 22t53 44t20 72q0 40 -14 66.5t-40 42t-63.5 21.5t-83.5 6h-144zM172 390h132q37 0 70 5.5t57.5 20t38.5 39t14 62.5q0 34 -15 57.5t-42.5 38.5t-65.5 21.5t-84 6.5q-37 0 -62.5 -2t-42.5 -5v-244z" />
<glyph unicode="&#x244;" horiz-adv-x="698" d="M349 -15q-69 0 -117.5 21t-78.5 58t-43.5 86.5t-13.5 106.5v94h-72v54h72v288h68v-288h370v288h68v-288h72v-54h-72v-94q0 -57 -13.5 -106.5t-43.5 -86.5t-78.5 -58t-117.5 -21zM349 46q42 0 76 13t58 40t37.5 68.5t13.5 98.5v85h-370v-85q0 -57 13.5 -98.5t37.5 -68.5 t58 -40t76 -13z" />
<glyph unicode="&#x245;" horiz-adv-x="624" d="M538 0q-30 89 -58 168.5t-55 154t-55.5 146t-59.5 144.5q-31 -72 -59.5 -143.5t-56 -146t-55 -154.5t-57.5 -169h-72q46 131 82 230t67.5 179t60.5 147.5t60 136.5h63q31 -69 60 -136.5t60.5 -147.5t68 -179t82.5 -230h-76z" />
<glyph unicode="&#x246;" horiz-adv-x="568" d="M235 0l-48 -115l-52 20l39 95h-84v693h374l29 69l52 -20l-147 -350h65v-57h-89l-115 -276h266v-59h-290zM158 392h180l101 242h-281v-242zM158 59h41l115 276h-156v-276z" />
<glyph unicode="&#x247;" horiz-adv-x="548" d="M55 259q0 68 19.5 118.5t51 84.5t72 50.5t83.5 16.5q25 0 44 -4l28 88l49 -16l-28 -87q54 -25 84.5 -82.5t30.5 -151.5q0 -8 -0.5 -16t-1.5 -15h-198l-59 -186q34 -12 81 -12q53 0 84 10t45 17l12 -55q-14 -8 -52.5 -19t-90.5 -11q-28 0 -52.5 3.5t-45.5 9.5l-27 -86 l-49 16l29 91q-57 34 -83 95t-26 141zM251 297l56 174q-6 1 -12 1.5t-13 0.5q-35 0 -63 -14t-48.5 -38t-32.5 -56t-14 -68h127zM424 297q0 57 -18 96.5t-50 59.5l-50 -156h118zM122 245q3 -110 62 -159l51 159h-113z" />
<glyph unicode="&#x248;" horiz-adv-x="504" d="M400 388h80v-54h-80v-116q0 -50 -10 -92.5t-34.5 -74t-65 -49t-101.5 -17.5q-36 0 -66 6.5t-53 15.5t-38.5 19t-23.5 18l32 55q9 -8 22.5 -17.5t31.5 -17.5t40 -13t48 -5q77 0 113.5 40.5t36.5 138.5v109h-149v54h149v305h68v-305z" />
<glyph unicode="&#x249;" horiz-adv-x="267" d="M5 -187q-11 0 -27.5 3t-24.5 7l9 53q7 -2 19 -4t23 -2q59 0 78.5 33t19.5 99v246h-95v53h95v216h65v-216h83v-53h-83v-243q0 -98 -37 -145t-125 -47zM182 673q0 -23 -14 -36.5t-34 -13.5t-34 13.5t-14 36.5t14 36.5t34 13.5t34 -13.5t14 -36.5z" />
<glyph unicode="&#x24a;" horiz-adv-x="789" d="M640 347q0 70 -18 125.5t-51 94.5t-79.5 59.5t-104.5 20.5t-104.5 -20.5t-79.5 -59.5t-51 -94.5t-18 -125.5t18 -125.5t51 -94.5t79.5 -60t104.5 -21t104.5 21t79.5 60t51 94.5t18 125.5zM646 124q-17 -29 -43.5 -54.5t-60.5 -44.5t-73.5 -29.5t-81.5 -10.5 q-66 0 -125 23t-103.5 68.5t-70.5 113.5t-26 157t26 156.5t70.5 113t103.5 68.5t125 23t125 -23t103.5 -68.5t70.5 -113t26 -156.5v-384q0 -48 15.5 -70.5t53.5 -22.5q12 0 22 2t15 4l9 -54q-8 -3 -22.5 -6t-31.5 -3q-42 0 -67.5 12.5t-38.5 34t-17 51t-4 63.5v150z" />
<glyph unicode="&#x24b;" horiz-adv-x="583" d="M432 30q-17 -13 -54.5 -27.5t-88.5 -14.5q-56 0 -99.5 20t-73.5 55.5t-45.5 85t-15.5 108.5q0 63 18.5 113t52 85t80 53.5t103.5 18.5q69 0 114 -9t74 -19v-536q0 -48 15 -70.5t53 -22.5q24 0 36 5l9 -53q-8 -3 -22 -5.5t-31 -2.5q-42 0 -66.5 12t-37.5 33.5t-17 51 t-4 63.5v56zM432 454q-15 5 -44.5 9.5t-77.5 4.5q-84 0 -135 -54.5t-51 -156.5q0 -43 9 -81.5t29 -67t52.5 -45t80.5 -16.5q23 0 44 4.5t39 11.5t31.5 15t22.5 15v361z" />
<glyph unicode="&#x24c;" horiz-adv-x="632" d="M347 285q-15 -2 -31 -2h-32h-112v-283h-68v283h-80v55h80v342q36 10 84.5 14.5t89.5 4.5q143 0 215.5 -54t72.5 -160q0 -78 -41 -123t-108 -65q16 -20 41.5 -54t52.5 -74.5t53 -84.5t44 -84h-73q-21 40 -46 80.5t-50.5 78t-49.5 70t-42 56.5zM286 640q-38 0 -66.5 -2.5 t-47.5 -4.5v-295h94q47 0 89 4.5t73 20t49 44.5t18 79q0 46 -18 76t-47 47.5t-66.5 24t-77.5 6.5z" />
<glyph unicode="&#x24d;" horiz-adv-x="382" d="M270 527q32 0 60.5 -5t39.5 -10l-13 -56q-8 4 -32.5 8.5t-64.5 4.5q-42 0 -67.5 -6t-33.5 -10v-186h155v-53h-155v-214h-65v214h-77v53h77v226q25 11 69 22.5t107 11.5z" />
<glyph unicode="&#x24e;" horiz-adv-x="589" d="M261 0v285q-32 48 -61 95t-57 94h-123v54h91q-24 42 -47 83t-44 82h79q19 -41 40.5 -82t44.5 -83h224q23 42 45 83t42 82h74l-93 -165h92v-54h-123q-27 -47 -56 -93t-60 -94v-287h-68zM297 342q20 32 40 64.5t40 67.5h-163q20 -35 41 -67.5t42 -64.5z" />
<glyph unicode="&#x24f;" horiz-adv-x="506" d="M247 -11q-35 63 -66 130t-58 136h-95v53h76q-20 54 -36 106t-28 103h69q11 -47 27 -99.5t36 -109.5h184q13 48 25 99t25 110h65q-12 -54 -25 -106t-27 -103h70v-53h-85q-22 -74 -45.5 -142t-49.5 -129q-19 -45 -39 -77.5t-44.5 -53.5t-57 -31t-76.5 -10q-25 0 -45.5 6 t-25.5 9l13 54q4 -3 22.5 -8.5t38.5 -5.5q28 0 50.5 6t40.5 20.5t32.5 37.5t28.5 58zM279 56q19 54 34 102.5t29 96.5h-151q20 -50 41.5 -100t46.5 -99z" />
<glyph unicode="&#x292;" horiz-adv-x="454" d="M125 216q26 29 53.5 63t53 67.5t47 63.5t35.5 52h-293v55h371v-37q-15 -25 -37.5 -58t-48.5 -68.5t-54.5 -71t-54.5 -64.5q42 -2 81.5 -12.5t70 -33.5t49 -59.5t18.5 -88.5q0 -104 -67.5 -156.5t-182.5 -52.5q-59 0 -102.5 10.5t-63.5 21.5l17 56q19 -10 57 -19.5 t92 -9.5q91 0 136.5 39t45.5 111q0 46 -18 74t-46.5 43.5t-64 20.5t-69.5 5h-25v49z" />
<glyph unicode="&#x2bc;" d="M235 776q0 -63 -18 -110t-48 -97l-45 21q17 35 28.5 74t11.5 77q0 9 -0.5 19.5t-1.5 15.5h73z" />
<glyph unicode="&#x2c6;" d="M84 584l-28 31l132 147l132 -147l-28 -31l-104 96z" />
<glyph unicode="&#x2c7;" d="M188 669l104 96l28 -31l-132 -147l-132 147l28 31z" />
<glyph unicode="&#x2c9;" d="M56 649v55h265v-55h-265z" />
<glyph unicode="&#x2d8;" d="M188 613q-24 0 -46.5 8t-40 24t-27 41t-8.5 60h43q0 -7 2.5 -20t10.5 -25.5t23.5 -22t42.5 -9.5t42.5 9.5t23.5 22t10.5 25.5t2.5 20h43q1 -35 -8.5 -60t-27 -41t-40 -24t-46.5 -8z" />
<glyph unicode="&#x2d9;" d="M188 623q-20 0 -34 13.5t-14 36.5t14 36.5t34 13.5t34 -13.5t14 -36.5t-14 -36.5t-34 -13.5z" />
<glyph unicode="&#x2da;" d="M283 676q0 -22 -7.5 -39.5t-20.5 -30t-30.5 -19.5t-36.5 -7q-39 0 -67.5 26t-28.5 70q0 43 28.5 69t67.5 26q19 0 36.5 -7t30.5 -19.5t20.5 -30t7.5 -38.5zM245 676q0 28 -16.5 43.5t-40.5 15.5t-40.5 -15.5t-16.5 -43.5q0 -29 16.5 -44t40.5 -15t40.5 15t16.5 44z" />
<glyph unicode="&#x2db;" d="M177 -186q-54 0 -76 19.5t-22 50.5t16.5 55t38.5 44q8 7 15.5 13.5t15.5 11.5h69q-12 -9 -25.5 -20t-27.5 -26q-16 -17 -25.5 -31.5t-9.5 -31.5q0 -18 12 -26t30 -8q9 0 19.5 1.5t18.5 4.5l5 -48q-8 -3 -23.5 -6t-30.5 -3z" />
<glyph unicode="&#x2dc;" d="M251 629q-22 0 -40 7t-35 15q-19 10 -31 13.5t-22 3.5q-21 0 -33 -14t-22 -31l-38 18q5 12 13.5 26t20 26t27 20t35.5 8q22 0 40 -7t35 -15q19 -10 31 -13.5t22 -3.5q21 0 33 14t22 31l38 -18q-5 -12 -13.5 -26t-20 -26t-27 -20t-35.5 -8z" />
<glyph unicode="&#x2dd;" d="M190 731l-126 -149l-39 29l119 162zM347 731l-126 -149l-39 29l119 162z" />
<glyph unicode="&#x311;" d="M188 746q24 0 46.5 -8t40 -24t27 -41.5t8.5 -59.5h-43q0 7 -2.5 20t-10.5 25.5t-23.5 22t-42.5 9.5t-42.5 -9.5t-23.5 -22t-10.5 -25.5t-2.5 -20h-43q-1 34 8.5 59.5t27 41.5t40 24t46.5 8z" />
<glyph unicode="&#x384;" d="M276 777l57 -39l-129 -163l-40 29z" />
<glyph unicode="&#x385;" d="M286 675q0 22 13 35t33 13t33 -13t13 -35t-13 -35t-33 -13t-33 13t-13 35zM-2 675q0 22 13 35t33 13t33 -13t13 -35t-13 -35t-33 -13t-33 13t-13 35zM255 737l-98 -156l-41 24l85 164z" />
<glyph unicode="&#x386;" horiz-adv-x="641" d="M556 0q-19 51 -36 98t-33 92h-337q-17 -45 -34 -92t-35 -98h-71q40 108 75 201.5t68.5 177t66.5 160.5t70 154h60q37 -77 70 -154t66.5 -160.5t68.5 -177t76 -201.5h-75zM318 615q-38 -86 -73.5 -175t-73.5 -192h295q-38 103 -74 192t-74 175zM185 688l-66 -192l-51 12 l45 197z" />
<glyph unicode="&#x388;" horiz-adv-x="618" d="M153 0v693h400v-59h-332v-241h296v-58h-296v-276h358v-59h-426zM92 688l-66 -192l-51 12l45 197z" />
<glyph unicode="&#x389;" horiz-adv-x="760" d="M602 693h68v-693h-68v333h-376v-333h-68v693h68v-301h376v301zM92 688l-66 -192l-51 12l45 197z" />
<glyph unicode="&#x38a;" horiz-adv-x="316" d="M158 693h68v-693h-68v693zM92 688l-66 -192l-51 12l45 197z" />
<glyph unicode="&#x38c;" horiz-adv-x="799" d="M737 347q0 -89 -26 -157t-70.5 -113.5t-103.5 -68.5t-125 -23t-125 23t-103.5 68.5t-70.5 113.5t-26 157t26 156.5t70.5 113t103.5 68.5t125 23t125 -23t103.5 -68.5t70.5 -113t26 -156.5zM665 347q0 70 -18 125.5t-51 94.5t-79.5 59.5t-104.5 20.5t-104.5 -20.5 t-79.5 -59.5t-51 -94.5t-18 -125.5t18 -125.5t51 -94.5t79.5 -60t104.5 -21t104.5 21t79.5 60t51 94.5t18 125.5zM92 688l-66 -192l-51 12l45 197z" />
<glyph unicode="&#x38e;" horiz-adv-x="695" d="M377 0v285q-71 109 -130.5 210.5t-110.5 197.5h79q42 -88 92.5 -178.5t105.5 -172.5q53 82 104 172.5t94 178.5h74q-53 -95 -112 -197.5t-128 -208.5v-287h-68zM92 688l-66 -192l-51 12l45 197z" />
<glyph unicode="&#x38f;" horiz-adv-x="805" d="M415 708q64 0 122 -21.5t101.5 -64.5t69 -107t25.5 -148q0 -57 -13.5 -104.5t-33.5 -86.5t-45 -68.5t-47 -49.5h155v-58h-254v44q35 26 65 58.5t52.5 73t35.5 88.5t13 105q0 65 -18 116.5t-50.5 87.5t-77.5 55t-100 19t-100 -19t-77.5 -55t-50.5 -87.5t-18 -116.5 q0 -57 13 -105t35.5 -88.5t52.5 -73t65 -58.5v-44h-254v58h155q-23 20 -47.5 49.5t-44.5 68.5t-33.5 86.5t-13.5 104.5q0 84 25.5 148t69 107t101 64.5t122.5 21.5zM92 688l-66 -192l-51 12l45 197z" />
<glyph unicode="&#x390;" horiz-adv-x="253" d="M215 -9q-33 1 -57.5 8.5t-41 23t-25 40t-8.5 61.5v393h65v-391q0 -24 4.5 -38.5t13.5 -23t23.5 -12.5t34.5 -7zM214 675q0 22 13 35t33 13t33 -13t13 -35t-13 -35t-33 -13t-33 13t-13 35zM-74 675q0 22 13 35t33 13t33 -13t13 -35t-13 -35t-33 -13t-33 13t-13 35z M183 737l-98 -156l-41 24l85 164z" />
<glyph unicode="&#x391;" horiz-adv-x="641" d="M556 0q-19 51 -36 98t-33 92h-337q-17 -45 -34 -92t-35 -98h-71q40 108 75 201.5t68.5 177t66.5 160.5t70 154h60q37 -77 70 -154t66.5 -160.5t68.5 -177t76 -201.5h-75zM318 615q-38 -86 -73.5 -175t-73.5 -192h295q-38 103 -74 192t-74 175z" />
<glyph unicode="&#x392;" horiz-adv-x="630" d="M256 -6q-17 0 -39.5 1.5t-46 4t-44.5 6t-36 7.5v667q18 5 40 8.5t45.5 6t46 3.5t41.5 1q56 0 106.5 -9t88.5 -30t60.5 -55.5t22.5 -85.5q0 -56 -28.5 -95.5t-76.5 -54.5q30 -7 55 -20t44 -33.5t29.5 -50t10.5 -70.5q0 -98 -78 -149.5t-241 -51.5zM158 332v-273 q15 -2 45 -4.5t61 -2.5q46 0 89.5 6t76.5 22t53 44t20 72q0 40 -14 66.5t-40 42t-63.5 21.5t-83.5 6h-144zM158 390h132q37 0 70 5.5t57.5 20t38.5 39t14 62.5q0 34 -15 57.5t-42.5 38.5t-65.5 21.5t-84 6.5q-37 0 -62.5 -2t-42.5 -5v-244z" />
<glyph unicode="&#x393;" horiz-adv-x="482" d="M464 693v-59h-306v-634h-68v693h374z" />
<glyph unicode="&#x394;" horiz-adv-x="630" d="M525 59q-28 84 -54.5 158t-52.5 142t-52 131t-53 125q-27 -62 -53.5 -125t-52.5 -131t-52.5 -142t-54.5 -158h425zM10 0q37 108 71 201.5t67 177t66.5 160.5t70.5 154h60q37 -77 70.5 -154t66.5 -160.5t67 -177t71 -201.5h-610z" />
<glyph unicode="&#x395;" horiz-adv-x="555" d="M90 0v693h400v-59h-332v-241h296v-58h-296v-276h358v-59h-426z" />
<glyph unicode="&#x396;" horiz-adv-x="560" d="M510 631q-24 -28 -55.5 -68t-67.5 -87.5t-73.5 -101t-74 -108t-69 -107.5t-58.5 -100h408v-59h-482v51q22 43 52.5 94.5t65.5 106t73 109.5t75 105.5t70.5 93.5t61.5 74h-379v59h453v-62z" />
<glyph unicode="&#x397;" horiz-adv-x="692" d="M534 693h68v-693h-68v333h-376v-333h-68v693h68v-301h376v301z" />
<glyph unicode="&#x398;" horiz-adv-x="774" d="M223 378h328v-58h-328v58zM712 347q0 -89 -26 -157t-70.5 -113.5t-103.5 -68.5t-125 -23t-125 23t-103.5 68.5t-70.5 113.5t-26 157t26 156.5t70.5 113t103.5 68.5t125 23t125 -23t103.5 -68.5t70.5 -113t26 -156.5zM640 347q0 70 -18 125.5t-51 94.5t-79.5 59.5 t-104.5 20.5t-104.5 -20.5t-79.5 -59.5t-51 -94.5t-18 -125.5t18 -125.5t51 -94.5t79.5 -60t104.5 -21t104.5 21t79.5 60t51 94.5t18 125.5z" />
<glyph unicode="&#x399;" horiz-adv-x="248" d="M90 693h68v-693h-68v693z" />
<glyph unicode="&#x39a;" horiz-adv-x="599" d="M513 0q-34 52 -76.5 103t-89.5 96t-95.5 82t-93.5 62v-343h-68v693h68v-323q38 34 84.5 78.5t92 89.5t85.5 86t64 69h82q-29 -31 -70 -73.5t-87 -87.5t-91.5 -88.5t-81.5 -76.5q29 -18 62.5 -44.5t68 -58t68 -66t63 -69.5t53 -68t38.5 -61h-76z" />
<glyph unicode="&#x39b;" horiz-adv-x="624" d="M538 0q-30 89 -58 168.5t-55 154t-55.5 146t-59.5 144.5q-31 -72 -59.5 -143.5t-56 -146t-55 -154.5t-57.5 -169h-72q46 131 82 230t67.5 179t60.5 147.5t60 136.5h63q31 -69 60 -136.5t60.5 -147.5t68 -179t82.5 -230h-76z" />
<glyph unicode="&#x39c;" horiz-adv-x="865" d="M401 100q-10 25 -28.5 66t-41.5 89.5t-47 100t-46 96.5t-39 79t-25 48q-13 -125 -20.5 -271.5t-13.5 -307.5h-67q9 189 20.5 362t28.5 331h60q30 -50 64 -115.5t67.5 -136t65 -139t55.5 -123.5q24 55 55.5 123.5t65 139t67.5 136t64 115.5h57q17 -158 28.5 -331 t20.5 -362h-69q-6 161 -13.5 307.5t-20.5 271.5q-8 -14 -25 -48t-39 -79t-46 -96.5t-47 -100t-41.5 -89.5t-28.5 -66h-61z" />
<glyph unicode="&#x39d;" horiz-adv-x="709" d="M562 0q-19 35 -48.5 82t-64.5 100.5t-74 110t-77.5 110t-75 100.5t-65.5 81v-584h-67v693h54q51 -57 109.5 -131.5t114.5 -152t104.5 -151.5t79.5 -129v564h67v-693h-57z" />
<glyph unicode="&#x39e;" horiz-adv-x="551" d="M98 334v59h354v-59h-354zM39 0v59h473v-59h-473zM497 693v-59h-443v59h443z" />
<glyph unicode="&#x39f;" horiz-adv-x="774" d="M712 347q0 -89 -26 -157t-70.5 -113.5t-103.5 -68.5t-125 -23t-125 23t-103.5 68.5t-70.5 113.5t-26 157t26 156.5t70.5 113t103.5 68.5t125 23t125 -23t103.5 -68.5t70.5 -113t26 -156.5zM640 347q0 70 -18 125.5t-51 94.5t-79.5 59.5t-104.5 20.5t-104.5 -20.5 t-79.5 -59.5t-51 -94.5t-18 -125.5t18 -125.5t51 -94.5t79.5 -60t104.5 -21t104.5 21t79.5 60t51 94.5t18 125.5z" />
<glyph unicode="&#x3a0;" horiz-adv-x="685" d="M595 693v-693h-68v634h-369v-634h-68v693h505z" />
<glyph unicode="&#x3a1;" horiz-adv-x="592" d="M265 699q147 0 219 -56t72 -159q0 -59 -21 -100.5t-60 -67t-95.5 -37t-127.5 -11.5h-94v-268h-68v680q36 10 84.5 14.5t90.5 4.5zM268 640q-38 0 -64.5 -2.5t-45.5 -4.5v-306h86q55 0 99.5 6.5t76 24t48.5 48.5t17 79q0 46 -18.5 76t-49 47.5t-69.5 24.5t-80 7z" />
<glyph unicode="&#x3a3;" horiz-adv-x="552" d="M356 364q-34 -41 -66.5 -79t-63.5 -75t-60 -74t-56 -77h401v-59h-473v58q18 30 45 65.5t59 75t66.5 81t67.5 83.5q-32 41 -65.5 81.5t-63.5 77.5t-55.5 68.5t-40.5 54.5v48h458v-59h-369q12 -19 35.5 -48t53.5 -65t63 -76.5t64 -80.5z" />
<glyph unicode="&#x3a4;" horiz-adv-x="548" d="M530 693v-59h-222v-634h-68v634h-222v59h512z" />
<glyph unicode="&#x3a5;" horiz-adv-x="569" d="M251 0v285q-71 109 -130.5 210.5t-110.5 197.5h79q42 -88 92.5 -178.5t105.5 -172.5q53 82 104 172.5t94 178.5h74q-53 -95 -112 -197.5t-128 -208.5v-287h-68z" />
<glyph unicode="&#x3a6;" horiz-adv-x="860" d="M463 142q54 0 102 13.5t83.5 41.5t56.5 71.5t21 102.5t-21 102.5t-56.5 71.5t-83.5 41.5t-102 13.5v-458zM397 86q-57 0 -116.5 15.5t-108 49.5t-79.5 88.5t-31 131.5t31 131.5t79.5 88.5t108 49.5t116.5 15.5v82h66v-82q57 0 116.5 -15.5t108 -49.5t79.5 -88.5 t31 -131.5t-31 -131.5t-79.5 -88.5t-108 -49.5t-116.5 -15.5v-86h-66v86zM397 600q-54 0 -102 -13.5t-83.5 -41.5t-56.5 -71.5t-21 -102.5t21 -102.5t56.5 -71.5t83.5 -41.5t102 -13.5v458z" />
<glyph unicode="&#x3a7;" horiz-adv-x="608" d="M490 693h76l-223 -325q65 -92 127 -184.5t108 -183.5h-74q-15 30 -38.5 69t-51 82t-57 86t-56.5 81q-27 -38 -56.5 -81t-57 -86t-51 -82t-38.5 -69h-71q46 91 108 183t126 183l-223 327h78l187 -279z" />
<glyph unicode="&#x3a8;" horiz-adv-x="802" d="M367 0v183q-85 0 -142 21.5t-92 59.5t-50 89t-15 111v229h67v-222q0 -62 15.5 -105.5t45 -70.5t72.5 -39t99 -12v449h68v-449q55 0 98.5 12t73 39t45 70.5t15.5 105.5v222h67v-229q0 -60 -15 -111t-50 -89t-92 -59.5t-142 -21.5v-183h-68z" />
<glyph unicode="&#x3a9;" horiz-adv-x="780" d="M390 708q64 0 122 -21.5t101.5 -64.5t69 -107t25.5 -148q0 -57 -13.5 -104.5t-33.5 -86.5t-45 -68.5t-47 -49.5h155v-58h-254v44q35 26 65 58.5t52.5 73t35.5 88.5t13 105q0 65 -18 116.5t-50.5 87.5t-77.5 55t-100 19t-100 -19t-77.5 -55t-50.5 -87.5t-18 -116.5 q0 -57 13 -105t35.5 -88.5t52.5 -73t65 -58.5v-44h-254v58h155q-23 20 -47.5 49.5t-44.5 68.5t-33.5 86.5t-13.5 104.5q0 84 25.5 148t69 107t101 64.5t122.5 21.5z" />
<glyph unicode="&#x3aa;" horiz-adv-x="248" d="M90 693h68v-693h-68v693zM96 829q0 -22 -13 -35t-33 -13t-33 13t-13 35t13 35t33 13t33 -13t13 -35zM268 829q0 -22 -13 -35t-33 -13t-33 13t-13 35t13 35t33 13t33 -13t13 -35z" />
<glyph unicode="&#x3ab;" horiz-adv-x="569" d="M251 0v285q-71 109 -130.5 210.5t-110.5 197.5h79q42 -88 92.5 -178.5t105.5 -172.5q53 82 104 172.5t94 178.5h74q-53 -95 -112 -197.5t-128 -208.5v-287h-68zM259 829q0 -22 -13 -35t-33 -13t-33 13t-13 35t13 35t33 13t33 -13t13 -35zM431 829q0 -22 -13 -35t-33 -13 t-33 13t-13 35t13 35t33 13t33 -13t13 -35z" />
<glyph unicode="&#x3ac;" horiz-adv-x="598" d="M451 41q-25 -20 -62.5 -36t-91.5 -16q-61 0 -106.5 21t-75.5 57t-45 85t-15 105q0 64 18.5 114.5t53 85t82.5 52.5t107 18q30 0 57.5 -3.5t51 -8t41 -10t27.5 -9.5v-369q0 -25 5 -39.5t15 -23t25 -12.5t35 -7l-9 -54q-81 3 -113 50zM428 451q-3 1 -13 4t-24.5 6t-32.5 5 t-37 2q-93 0 -145 -54t-52 -157q0 -42 8.5 -79.5t29 -66.5t53.5 -46t82 -17q24 0 46 5t39.5 12t30.5 15t20 14q-5 22 -5 47v310zM352 777l57 -39l-129 -163l-40 29z" />
<glyph unicode="&#x3ad;" horiz-adv-x="498" d="M273 47q31 0 58.5 4t49 10t37 12.5t21.5 10.5l21 -57q-8 -5 -24.5 -11.5t-41 -12.5t-55.5 -10.5t-67 -4.5q-103 1 -159.5 38t-56.5 110q0 60 29.5 92.5t78.5 46.5q-35 11 -61.5 38.5t-26.5 71.5q0 71 53.5 107t152.5 36q58 0 97 -9t53 -16l-15 -58q-12 5 -46 15.5 t-91 10.5q-25 0 -50 -4t-44.5 -14t-31.5 -27t-12 -43q0 -28 14.5 -44.5t35 -25.5t43.5 -11.5t40 -2.5h67v-55h-72q-21 0 -46.5 -3.5t-48 -14.5t-37.5 -31t-15 -54q0 -47 40 -70.5t110 -23.5zM310 777l57 -39l-129 -163l-40 29z" />
<glyph unicode="&#x3ae;" horiz-adv-x="568" d="M86 499q29 8 78 18t120 10q59 0 98.5 -17t63 -48.5t33.5 -75.5t10 -97v-474h-65v453q0 55 -7.5 93t-25 62t-46 34.5t-71.5 10.5q-46 0 -79.5 -5t-43.5 -9v-454h-65v499zM338 777l57 -39l-129 -163l-40 29z" />
<glyph unicode="&#x3af;" horiz-adv-x="253" d="M215 -9q-33 1 -57.5 8.5t-41 23t-25 40t-8.5 61.5v393h65v-391q0 -24 4.5 -38.5t13.5 -23t23.5 -12.5t34.5 -7zM167 777l57 -39l-129 -163l-40 29z" />
</font>
</defs>
</svg>
